<?xml version="1.0" standalone="no"?>
<!DOCTYPE svg PUBLIC "-//W3C//DTD SVG 1.1//EN" "http://www.w3.org/Graphics/SVG/1.1/DTD/svg11.dtd" >
<svg xmlns="http://www.w3.org/2000/svg">
<metadata>Generated by IcoMoon</metadata>
<defs>
<font id="bindicon" horiz-adv-x="1024">
<font-face units-per-em="1024" ascent="960" descent="-64" />
<missing-glyph horiz-adv-x="1024" />
<glyph unicode="&#x20;" d="" horiz-adv-x="512" />
<glyph unicode="&#xe600;" d="M895.784 686.84h-110.824v93.628c0 42.5-34.438 76.972-76.97 76.972h-528.46c-42.482 0-76.97-34.472-76.97-76.972v-716.252c0-14.178 11.478-25.656 25.656-25.656h767.566c14.162 0 25.656 11.478 25.656 25.656v596.966c0.002 14.178-11.492 25.658-25.654 25.658zM179.53 823.32h528.46c23.622 0 42.85-19.226 42.85-42.852v-93.628h-614.16v93.628c0 23.626 19.224 42.852 42.85 42.852zM887.32 72.68h-750.64v580.040h750.64v-580.040zM648.48 362.682c0-47.1 38.202-85.268 85.318-85.268s85.282 38.168 85.282 85.268c0 47.114-38.168 85.3-85.282 85.3s-85.318-38.184-85.318-85.3zM784.96 362.682c0-28.206-22.958-51.148-51.162-51.148-28.222 0-51.198 22.942-51.198 51.148 0 28.222 22.974 51.18 51.198 51.18 28.204 0 51.162-22.956 51.162-51.18z" />
<glyph unicode="&#xe601;" d="M358.46 533.3v-170.6h139.896l116.004-115.99v402.594l-116.004-116.004h-139.896zM522.48 509.176l57.76 57.76v-237.856l-67.756 67.74h-119.904v102.36h119.906l9.994 9.996zM512 874.5c-235.54 0-426.5-190.96-426.5-426.5 0-235.542 190.96-426.5 426.5-426.5 235.542 0 426.5 190.958 426.5 426.5 0 235.54-190.958 426.5-426.5 426.5zM512 55.62c-216.366 0-392.38 176.030-392.38 392.38 0 216.348 176.014 392.38 392.38 392.38s392.38-176.032 392.38-392.38c0-216.35-176.014-392.38-392.38-392.38z" />
<glyph unicode="&#xe602;" d="M358.46 533.3v-170.6h139.896l116.004-115.99v402.594l-116.004-116.004h-139.896zM522.48 509.176l57.76 57.76v-237.856l-67.758 67.74h-119.902v102.36h119.904l9.996 9.996zM854.1 702.716l-27.506-20.476c48.83-65.424 77.786-146.51 77.786-234.24 0-87.732-28.956-168.818-77.786-234.226l27.506-20.476c53.014 71.072 84.4 159.222 84.4 254.7 0 95.48-31.388 183.646-84.4 254.718zM771.582 254.726c40.334 54.044 64.542 120.802 64.542 193.274 0 72.47-24.206 139.228-64.542 193.274l-27.322-20.342c36.086-48.348 57.742-108.092 57.742-172.932 0-64.842-21.64-124.568-57.742-172.934l27.322-20.34zM689.614 315.75c27.606 36.986 44.166 82.652 44.166 132.25 0 49.596-16.56 95.278-44.166 132.248l-27.322-20.342c23.356-31.288 37.368-69.94 37.368-111.906 0-41.968-14.012-80.618-37.368-111.906l27.322-20.344zM511.982 55.62c-216.348 0-392.362 176.014-392.362 392.38s176.014 392.38 392.362 392.38c107.824 0 205.504-43.834 276.508-114.456l24.24 24.24c-77.134 76.772-183.342 124.336-300.748 124.336-235.522 0-426.482-190.942-426.482-426.5 0-235.542 190.96-426.5 426.482-426.5 117.406 0 223.614 47.564 300.75 124.334l-24.24 24.258c-71.006-70.64-168.684-114.472-276.51-114.472z" />
<glyph unicode="&#xe603;" d="M793.49 678.31c-127.184 0-230.31-103.108-230.31-230.31 0-83.1 44.15-155.688 110.124-196.19h-322.608c65.974 40.502 110.124 113.090 110.124 196.19 0 127.202-103.126 230.31-230.31 230.31s-230.31-103.108-230.31-230.31c0-127.2 103.126-230.31 230.31-230.31h562.98c127.184 0 230.31 103.11 230.31 230.31 0 127.202-103.126 230.31-230.31 230.31zM34.32 448c0 108.174 88.016 196.19 196.19 196.19s196.19-88.016 196.19-196.19-88.016-196.19-196.19-196.19-196.19 88.016-196.19 196.19zM793.49 251.81c-108.174 0-196.19 88.016-196.19 196.19s88.016 196.19 196.19 196.19 196.19-88.016 196.19-196.19-88.016-196.19-196.19-196.19z" />
<glyph unicode="&#xe604;" d="M901.948 669.78l-219.348-131.914v148.974c0 28.254-22.926 51.18-51.18 51.18h-545.92c-28.288 0-51.18-22.926-51.18-51.18v-477.68c0-28.256 22.892-51.18 51.18-51.18h545.92c28.254 0 51.18 22.924 51.18 51.18v151.806l224.178-134.746h82.902v443.56h-87.732zM648.48 209.16c0-9.414-7.666-17.060-17.060-17.060h-545.92c-9.43 0-17.060 7.646-17.060 17.060v477.68c0 9.412 7.63 17.060 17.060 17.060h545.92c9.394 0 17.060-7.648 17.060-17.060v-477.68zM955.56 260.34h-39.318l-233.642 140.444v97.262l228.81 137.612h44.15v-375.318z" />
<glyph unicode="&#xe605;" d="M512 857.444c-226.146 0-409.44-183.294-409.44-409.44 0-226.144 183.294-409.446 409.44-409.446s409.44 183.302 409.44 409.446c0 226.146-183.294 409.44-409.44 409.44zM512 823.324c206.954 0 375.32-168.366 375.32-375.32 0-91.048-32.62-174.614-86.766-239.672-37.42 15.626-125.75 46.282-180.43 62.426-4.664 1.466-5.398 1.7-5.398 21.108 0 16.028 6.598 32.17 13.028 45.832 6.964 14.844 15.226 39.802 18.192 62.192 8.296 9.63 19.592 28.624 26.856 64.824 6.364 31.906 3.398 43.516-0.832 54.412-0.434 1.15-0.9 2.282-1.234 3.416-1.6 7.48 0.598 46.348 6.064 76.504 3.766 20.692-0.968 64.692-29.456 101.092-17.994 23.008-52.414 51.246-115.288 55.178l-34.486-0.032c-61.81-3.9-96.262-32.138-114.256-55.146-28.488-36.4-33.22-80.4-29.454-101.078 5.496-30.17 7.664-69.038 6.098-76.37-0.332-1.282-0.8-2.416-1.266-3.566-4.198-10.896-7.198-22.508-0.8-54.412 7.23-36.202 18.526-55.194 26.856-64.824 2.932-22.392 11.196-47.348 18.192-62.192 5.098-10.862 7.498-25.64 7.498-46.532 0-19.41-0.734-19.642-5.1-21.024-56.544-16.694-146.542-49.214-180.096-63.908-55.208 65.358-88.562 149.724-88.562 241.772 0 206.952 168.366 375.32 375.32 375.32zM249.968 179.634c38.42 15.684 115.022 43.008 165.336 57.87 29.256 9.23 29.256 33.87 29.256 53.662 0 16.41-1.132 40.602-10.73 61.060-6.598 14.012-14.13 38.036-15.794 56.844-0.366 4.398-2.432 8.464-5.764 11.362-4.832 4.232-14.662 19.726-20.926 50.98-4.964 24.74-2.864 30.156-0.832 35.386 0.866 2.234 1.7 4.432 2.366 6.914 4.098 14.976-0.468 64.174-5.432 91.464-2.164 11.862 0.566 45.566 22.758 73.956 19.892 25.44 50.014 39.618 88.432 42.066l32.354 0.034c39.452-2.482 69.572-16.66 89.498-42.1 22.192-28.39 24.89-62.094 22.724-73.97-4.932-27.274-9.53-76.472-5.432-91.432 0.702-2.5 1.5-4.698 2.366-6.932 2.034-5.23 4.132-10.646-0.8-35.386-6.262-31.254-16.126-46.748-20.958-50.98-3.298-2.898-5.364-6.964-5.764-11.362-1.632-18.808-9.162-42.832-15.76-56.844-7.564-16.078-16.26-37.486-16.26-60.36 0-19.794 0-44.432 29.554-53.746 48.148-14.228 125.118-40.668 165.768-56.652-67.872-67.208-161.134-108.792-263.928-108.792-101.86 0-194.324 40.85-262.032 106.958z" />
<glyph unicode="&#xe606;" d="M661.276 360.166l24.124 24.122-173.4 173.4-173.4-173.4 24.126-24.122 132.214 132.214v-540.072h34.12v540.072zM426.7 122.908v34.12h-221.78v580.040h614.16v-580.040h-221.78v-34.12h255.9v648.28h-682.4v-648.28z" />
<glyph unicode="&#xe607;" d="M750.84 465.060h-426.5v204.72c0 103.476 84.2 187.66 187.694 187.66 103.458 0 187.626-84.184 187.626-187.66v-68.24h34.12v68.24c0 122.468-99.294 221.78-221.746 221.78-122.502 0-221.814-99.312-221.814-221.78v-204.72h-119.42v-460.62h682.4v460.62h-102.36zM819.080 38.56h-614.16v392.38h614.16v-392.38z" />
<glyph unicode="&#xe608;" d="M529.060 874.084v51.596h-34.12v-51.596c-274.326-8.998-494.74-233.526-494.74-508.434 0-18.094 1-36.62 3-55.112l33.986 1.216c2.066 57.26 48.514 102.126 105.792 102.126 58.41 0 105.958-47.548 105.958-105.976h34.12c0 58.428 47.548 105.976 105.992 105.976 57.778 0 104.826-46.482 105.892-104.010v-264.164c0-41.566 33.788-75.386 75.372-75.386s75.404 33.82 75.404 75.386h-34.12c0-22.756-18.526-41.266-41.284-41.266s-41.252 18.51-41.252 41.266v262.198h0.1c0 58.428 47.514 105.976 105.958 105.976s105.992-47.548 105.992-105.976h34.12c0 58.428 47.548 105.976 105.958 105.976 56.78 0 103.226-44.45 105.726-101.194l34.022-1.034c1.898 18.094 2.864 36.252 2.864 53.996 0 274.91-220.414 499.438-494.74 508.436zM881.188 448c-53.012 0-99.228-29.606-123.018-73.138-23.79 43.532-70.040 73.138-123.052 73.138s-99.228-29.606-123.018-73.138c-23.79 43.532-70.040 73.138-123.052 73.138s-99.262-29.606-123.052-73.138c-23.79 43.532-70.006 73.138-123.018 73.138-43.316 0-81.936-19.392-107.592-50.164 16.728 246.836 224.080 442.562 476.614 442.562 252.47 0 459.82-195.69 476.582-442.462-25.692 30.688-64.276 50.064-107.394 50.064z" />
<glyph unicode="&#xe609;" d="M836.14 772.14h-170.6v34.12c0 37.684-30.554 68.24-68.24 68.24h-170.6c-37.686 0-68.24-30.556-68.24-68.24v-34.12h-170.6v-34.12h35.154l34.152-648.28c0-37.686 30.554-68.24 68.24-68.24h375.32c37.686 0 68.24 30.554 68.24 68.24l33.554 648.28h33.62v34.12zM392.58 806.26c0 18.826 15.328 34.12 34.12 34.12h170.6c18.826 0 34.12-15.294 34.12-34.12v-34.12h-238.84v34.12zM734.912 91.506l-0.066-0.866v-0.9c0-18.794-15.294-34.12-34.12-34.12h-375.32c-18.792 0-34.12 15.326-34.12 34.12v0.9l-0.032 0.9-34.088 646.48h511.202l-33.456-646.514zM494.94 669.78h34.12v-545.92h-34.12v545.92zM427.466 124.958l-34.918 544.854-34.054-2.164 34.92-544.854zM665.774 668.714l-34.054 2.132-34.42-545.92 34.054-2.132z" />
<glyph unicode="&#xe60a;" d="M945.040 135.68l-180.946 180.946 24.14 24.142-24.124 24.122-72.354-72.354-120.668 120.636 144.976 145.010c19.31-6.88 39.502-10.362 60.21-10.362 47.782 0 92.714 18.61 126.516 52.38 52.148 52.18 66.942 129.732 37.686 197.556l-9.946 23.090-77.752-77.752-62.608-0.85 0.832 59.71 79.27 79.252-23.042 9.978c-22.608 9.78-46.614 14.744-71.338 14.744-47.798 0-92.714-18.61-126.468-52.396-49.48-49.446-65.376-121.668-41.968-186.876l-144.926-144.926-205.104 205.070 24.142 24.124-132.65 132.664-72.438-72.338 132.714-132.698 24.108 24.122 205.102-205.070-144.944-144.944c-19.358 6.932-39.634 10.43-60.41 10.43-47.782 0-92.712-18.61-126.482-52.396-52.264-52.23-67.026-129.882-37.62-197.79l9.978-23.024 79.254 79.252 59.692 0.8-0.85-62.608-77.752-77.752 23.090-9.948c22.542-9.712 46.448-14.644 71.072-14.644 47.798 0 92.698 18.594 126.468 52.364 49.398 49.414 65.308 121.552 42.050 186.66l145.010 145.028 120.67-120.62-72.406-72.406 24.124-24.122 24.122 24.122 180.93-180.93c16.11-16.126 37.552-25.006 60.326-25.006 22.776 0 44.2 8.88 60.328 25.006 33.258 33.238 33.24 87.352-0.014 120.604zM124.762 811.25l24.14 24.090 84.416-84.416-24.122-24.124-84.434 84.45zM366.334 241.422c23.658-54.928 11.662-117.72-30.554-159.954-27.324-27.322-63.658-42.366-102.342-42.366-11.112 0-22.042 1.234-32.686 3.698l50.198 50.198 1.514 111.522-108.608-1.466-51.816-51.812c-11.396 48.314 2.598 99.294 38.652 135.33 27.34 27.338 63.692 42.4 102.36 42.4 20.042 0 39.468-4.016 57.778-11.946l10.648-4.6 346.214 346.216-4.598 10.646c-23.808 54.994-11.846 117.836 30.454 160.12 27.324 27.34 63.676 42.4 102.344 42.4 11.212 0 22.224-1.266 32.97-3.748l-51.78-51.78-1.5-108.624 111.522 1.516 50.248 50.23c11.262-48.23-2.75-99.11-38.686-135.080-27.356-27.324-63.708-42.384-102.394-42.384-19.976 0-39.35 3.998-57.626 11.862l-10.63 4.582-346.264-346.33 4.582-10.63zM920.934 39.202c-9.68-9.68-22.542-15.012-36.204-15.012-13.678 0-26.522 5.332-36.202 15.012l-180.93 180.93 72.372 72.372 180.946-180.946c19.96-19.96 19.96-52.414 0.018-72.356z" />
<glyph unicode="&#xe60b;" d="M469.95 418.412c0.666-0.832 1.598-1.534 2.332-2.332 9.396-11.662 23.59-19.26 39.718-19.26 28.254 0 51.18 22.892 51.18 51.18 0 15.026-6.598 28.388-16.86 37.75-1.332 1.5-2.566 3.034-4.532 4.532l-206.82 157.372c-6.030 4.632-14.694 4.864-20.99 0-7.53-5.798-8.932-16.594-3.132-24.124l159.104-205.118zM512 874.466c-5.598 0-11.062-0.632-16.594-0.832v-17.692h-0.466v-186.128h34.12v169.666c208.45-9.030 375.32-180.896 375.32-391.48 0-216.35-175.998-392.348-392.38-392.348s-392.38 176-392.38 392.348c0 108.192 44.016 206.286 115.088 277.324l-24.258 24.258c-77.202-77.168-124.95-183.794-124.95-301.582 0-235.542 190.926-426.468 426.5-426.468s426.5 190.926 426.5 426.468c0 235.542-190.926 426.466-426.5 426.466z" />
<glyph unicode="&#xe60c;" d="M793.008 908.62h-224.812l-516.816-515.464 404.908-405.776 516.332 514.966v227.078l-179.612 179.196zM938.5 516.508l-482.144-480.878-356.712 357.476 482.662 481.394h196.59l159.604-159.236v-198.756zM699.76 704.018c0-37.552 30.604-68.090 68.24-68.090 37.634 0 68.24 30.538 68.24 68.090 0 37.568-30.606 68.122-68.24 68.122-37.636 0-68.24-30.554-68.24-68.122zM802.12 704.018c0-18.726-15.312-33.97-34.12-33.97-18.81 0-34.12 15.244-34.12 33.97 0 18.742 15.31 34.002 34.12 34.002s34.12-15.26 34.12-34.002z" />
<glyph unicode="&#xe60d;" d="M513.8 589.82c-75.372 0-136.498-61.094-136.498-136.498 0-75.37 61.126-136.496 136.498-136.496 75.386 0 136.462 61.126 136.462 136.496 0 75.404-61.076 136.498-136.462 136.498zM513.8 350.948c-56.444 0-102.378 45.93-102.378 102.376s45.932 102.378 102.378 102.378c56.428 0 102.342-45.932 102.342-102.378s-45.914-102.376-102.342-102.376zM513.782 726.282c-150.758 0-272.96-122.186-272.96-272.96 0-150.758 122.202-272.96 272.96-272.96s272.96 122.202 272.96 272.96c0 150.776-122.202 272.96-272.96 272.96zM513.782 214.482c-131.698 0-238.84 107.142-238.84 238.84 0 131.7 107.142 238.84 238.84 238.84s238.84-107.14 238.84-238.84c0-131.698-107.142-238.84-238.84-238.84zM921.44 453.322c0 226.146-183.312 409.44-409.44 409.44s-409.44-183.294-409.44-409.44c0-124.618 55.746-236.156 143.576-311.244l-69.838-87.548 26.688-21.292 69.99 87.75c67.272-48.466 149.774-77.104 239.022-77.104 88.848 0 171.016 28.39 238.124 76.47l69.59-87.116 26.656 21.292-69.338 86.814c88.316 75.106 144.41 186.962 144.41 311.978zM136.68 453.322c0 206.954 168.368 375.32 375.32 375.32 206.954 0 375.32-168.366 375.32-375.32 0-206.952-168.366-375.32-375.32-375.32-206.952 0-375.32 168.37-375.32 375.32z" />
<glyph unicode="&#xe60e;" d="M512 703.668c-141.346 0-255.9-114.606-255.9-255.934 0-141.294 114.554-255.866 255.9-255.866 141.328 0 255.9 114.572 255.9 255.866 0 141.328-114.572 255.934-255.9 255.934zM512 225.988c-122.286 0-221.78 99.476-221.78 221.746 0 122.304 99.494 221.814 221.78 221.814s221.78-99.51 221.78-221.814c0-122.27-99.494-221.746-221.78-221.746zM495.074 959.8h34.12v-204.952h-34.12v204.952zM495.074 140.688h34.12v-204.488h-34.12v204.488zM0.2 465.060h204.72v-34.12h-204.72v34.12zM819.080 465.060h204.72v-34.12h-204.72v34.12zM861.943 823.028l24.125-24.125-142.643-142.643-24.125 24.125 142.643 142.643zM162.299 75.090l-24.125 24.125 142.643 142.643 24.125-24.125-142.643-142.643zM162.321 823.022l142.645-142.645-24.123-24.123-142.645 142.645 24.123 24.123zM861.989 75.086l-142.643 142.643 24.125 24.125 142.643-142.643-24.125-24.125z" />
<glyph unicode="&#xe60f;" d="M1008.448 602.34l-496.44 238.94-496.456-238.958 69.956-42.182v-368.94h34.12v348.364l102.36-61.724v-423.12h580.040v423.018l206.42 124.602zM512.008 803.428l424.802-204.488-424.552-256.266-425.034 256.284 424.784 204.47zM767.908 88.84h-511.8v368.44l256.15-154.456 255.65 154.324v-368.308z" />
<glyph unicode="&#xe610;" d="M801.236 679.010l28.872 28.856 29.254-29.256 36.186 36.186-82.634 82.636-36.186-36.186 29.254-29.256-28.872-28.856c-63.958 58.644-147.408 96.262-239.522 102.226v69.14h-51.18v-69.14c-204.768-13.194-366.788-183.362-366.788-391.48 0-216.716 175.666-392.38 392.38-392.38s392.38 175.664 392.38 392.38c0 102.226-39.118 195.29-103.144 265.13zM512 55.62c-197.54 0-358.26 160.736-358.26 358.26 0 197.554 160.72 358.26 358.26 358.26s358.26-160.706 358.26-358.26c0-197.524-160.72-358.26-358.26-358.26zM529.060 461.928v224.912h-34.12v-224.912c-19.826-7.064-34.12-25.792-34.12-48.048 0-22.258 14.294-40.984 34.12-48.050v-71.37h34.12v71.37c19.826 7.064 34.12 25.792 34.12 48.050 0 22.256-14.294 40.984-34.12 48.048z" />
<glyph unicode="&#xe611;" d="M620.156 550.296l-108.156 332.738-108.19-332.736h-352.43l285.588-204.702-109.656-332.628 284.688 206.342 284.654-206.344-109.622 332.628 285.588 204.702h-352.464zM654.612 334.914l76.602-232.35-219.214 158.88-219.248-158.88 84.466 256.158-20.392 14.594-199.29 142.86h271.062l83.402 256.518 83.368-256.518h271.062l-219.648-157.454 7.83-23.808z" />
<glyph unicode="&#xe612;" d="M-0.658 565.888v-238.84h102.36v-204.72h34.12v204.72h262.464l249.202-201.654v648.278l-250.784-207.784h-397.362zM33.462 361.168v170.6h136.48v-170.6h-136.48zM418.478 539.614l194.89 161.486v-504.204l-203.004 164.268h-206.302v170.6h204.938l9.478 7.85zM883.63 742.634l-24.54-24.556c79.852-62.51 131.448-159.504 131.448-268.544 0-111.94-54.428-211.166-137.962-273.41l24.69-24.69c89.566 68.59 147.394 176.58 147.394 298.1-0.002 118.602-55.098 224.31-141.030 293.1zM773.972 632.96l-24.808-24.806c52.664-33.27 87.834-91.848 87.834-158.62 0-69.722-38.302-130.566-94.914-162.92l24.856-24.858c62.51 39.22 104.176 108.542 104.176 187.778 0.002 76.286-38.516 143.526-97.144 183.426z" />
<glyph unicode="&#xe613;" d="M511.024 371.222c-75.254 0-136.48-61.226-136.48-136.48s61.226-136.48 136.48-136.48c75.254 0 136.48 61.226 136.48 136.48s-61.224 136.48-136.48 136.48zM511.024 132.382c-56.446 0-102.36 45.916-102.36 102.36s45.914 102.36 102.36 102.36c56.444 0 102.36-45.916 102.36-102.36s-45.916-102.36-102.36-102.36zM511.024 524.762c-115.172 0-214.582-67.64-261.364-165.152l25.54-25.524c38.868 91.898 129.932 156.554 235.824 156.554s196.956-64.658 235.826-156.554l25.538 25.524c-46.782 97.512-146.192 165.152-261.364 165.152zM512.69 797.738c-190.426 0-358.96-95.13-460.886-240.256l24.456-24.458c95.364 139.114 255.402 230.594 436.43 230.594 180.18 0 339.516-90.632 435.048-228.644l24.458 24.458c-102.078 144.026-269.928 238.306-459.506 238.306zM512.69 661.258c-152.908 0-287.206-80.934-362.508-202.154l24.84-24.824c68.408 115.322 194.124 192.858 337.668 192.858 142.678 0 267.78-76.57 336.452-190.758l24.756 24.756c-75.536 120.088-209.166 200.122-361.208 200.122z" />
<glyph unicode="&#xe614;" d="M761.97 354.994l111.822-111.872h-201.486l-416.372 443.56h-171.034v-34.12h156.274l416.37-443.56h216.248l-111.522-111.556 24.124-24.124 152.706 152.756-153.006 153.040zM241.174 243.122h-156.274v-34.12h171.034l165.202 175.998-24.89 23.358zM672.338 652.562h201.454l-111.522-111.556 24.124-24.124 152.706 152.756-153.006 153.040-24.124-24.124 111.822-111.872h-216.248l-165.934-177.432 24.922-23.29z" />
<glyph unicode="&#xe615;" d="M102.56 857.44v-818.88h818.88v818.88h-818.88zM887.32 72.68h-750.64v750.64h750.64v-750.64zM290.186 533.3c0-122.502 99.312-221.78 221.798-221.78s221.762 99.278 221.762 221.78v119.42h34.154v34.12h-102.36v-34.12h34.086v-119.42c0-103.476-84.182-187.66-187.642-187.66-103.492 0-187.678 84.184-187.678 187.66v119.42h34.154v34.12h-102.36v-34.12h34.086v-119.42z" />
<glyph unicode="&#xe616;" d="M836.14 891.56c-75.37 0-136.48-61.126-136.48-136.48 0-13.078 1.95-25.706 5.382-37.684l-398.994-167.236c-23.59 40.868-67.642 68.44-118.188 68.44-75.354 0-136.48-61.126-136.48-136.48 0-75.37 61.126-136.48 136.48-136.48 39.486 0 74.972 16.878 99.894 43.7l257.1-184.778c-10.044-19.008-15.794-40.634-15.794-63.626 0-75.386 61.126-136.498 136.48-136.498s136.48 61.11 136.48 136.498c0 75.354-61.126 136.462-136.48 136.462-40.084 0-76.036-17.41-101.010-44.93l-256.75 184.478c10.564 19.376 16.56 41.568 16.56 65.174 0 12.678-1.864 24.908-5.098 36.57l399.294 167.368c23.706-40.316 67.44-67.472 117.604-67.472 75.372 0 136.48 61.108 136.48 136.496 0 75.352-61.108 136.478-136.48 136.478zM665.54 243.28c56.444 0 102.36-45.916 102.36-102.342 0-56.444-45.916-102.378-102.36-102.378s-102.36 45.932-102.36 102.378c0 56.426 45.916 102.342 102.36 102.342zM187.86 379.76c-56.444 0-102.36 45.916-102.36 102.36s45.916 102.36 102.36 102.36 102.36-45.916 102.36-102.36c0-56.442-45.916-102.36-102.36-102.36zM836.14 652.704c-56.444 0-102.36 45.932-102.36 102.376s45.916 102.36 102.36 102.36c56.444 0 102.36-45.916 102.36-102.36s-45.916-102.376-102.36-102.376z" />
<glyph unicode="&#xe617;" d="M512 891.56c-216.716 0-392.38-84.018-392.38-187.678v-511.8c0-103.626 175.664-187.642 392.38-187.642 216.68 0 392.38 84.018 392.38 187.642v511.8c0 103.66-175.7 187.678-392.38 187.678zM512 857.44c211.118 0 358.26-80.918 358.26-153.558 0-72.606-147.142-153.522-358.26-153.522-211.152 0-358.26 80.918-358.26 153.522 0 72.64 147.108 153.558 358.26 153.558zM870.26 226.202v-34.12c0-72.606-147.142-153.522-358.26-153.522-211.152 0-358.26 80.918-358.26 153.522v94.098c61.242-65.474 198.554-111.14 358.26-111.14 159.67 0 297.016 45.664 358.26 111.14v-59.978zM870.26 362.682c0-72.606-147.142-153.522-358.26-153.522-211.152 0-358.26 80.918-358.26 153.522v94.098c61.242-65.474 198.554-111.14 358.26-111.14 159.67 0 297.016 45.664 358.26 111.14v-94.098zM870.26 533.282c0-72.606-147.142-153.522-358.26-153.522-211.152 0-358.26 80.918-358.26 153.522v94.098c61.242-65.474 198.554-111.14 358.26-111.14 159.67 0 297.016 45.664 358.26 111.14v-94.098z" />
<glyph unicode="&#xe618;" d="M914.926 87.278l-232.41 232.434c46.716 56.178 74.838 128.334 74.838 207.086 0 179.030-145.108 324.14-324.14 324.14-178.996 0-324.14-145.11-324.14-324.14 0-178.996 145.144-324.14 324.14-324.14 78.77 0 150.908 28.122 207.086 74.838l232.41-232.434 42.216 42.216zM143.194 526.798c0 159.92 130.082 290.020 290.020 290.020 159.906 0 290.020-130.1 290.020-290.020s-130.114-290.020-290.020-290.020c-159.938 0-290.020 130.1-290.020 290.020z" />
<glyph unicode="&#xe619;" d="M786.85 448c83.734 86.066 121.202 169.816 89.798 221.496-12.512 20.608-41.352 45.164-107.624 45.164-36.336 0-78.82-7.364-124.652-20.924-30.44 109.99-81.152 180.764-139.696 180.764-57.826 0-108.024-69.074-138.578-176.798-40.5 11.030-78.102 16.96-110.74 16.96-66.274 0-95.112-24.556-107.642-45.164-25.174-41.418-8.296-103.244 47.516-174.082 12.446-15.794 26.64-31.688 42.15-47.55-83.668-86-121.070-169.716-89.666-221.396 12.528-20.592 41.368-45.15 107.624-45.15 32.638 0 70.256 5.948 110.774 16.962 30.538-107.708 80.734-176.78 138.562-176.78 58.544 0 109.258 70.772 139.696 180.746 45.816-13.562 88.316-20.926 124.668-20.926 66.258 0 95.098 24.558 107.61 45.15 31.402 51.694-6.066 135.478-89.8 221.528zM769.024 680.542c27.822 0 64.024-4.998 78.47-28.772 20.808-34.236-10.512-103.51-84.968-179.914-27.156 25.408-58.126 50.78-92.396 75.336-3.698 40.402-9.614 78.42-17.444 113.256 43.298 12.962 83.134 20.094 116.338 20.094zM582.714 331.928c-23.358-14.194-46.982-27.272-70.522-39.2-23.524 11.928-47.148 25.006-70.506 39.2-24.59 14.944-48.098 30.622-70.44 46.732-1.45 22.358-2.384 45.384-2.384 69.34 0 23.99 0.934 47.032 2.398 69.422 21.86 15.794 45.316 31.422 70.372 46.648 23.374 14.194 46.998 27.272 70.556 39.218 23.556-11.946 47.182-25.024 70.556-39.218 19.276-11.714 37.336-23.708 54.728-35.786 1.95-25.674 3.034-52.428 3.034-80.284 0-27.84-1.084-54.612-3.034-80.268-17.39-12.080-35.468-24.092-54.758-35.804zM633.126 323.466c-3.348-27.54-7.846-53.28-13.11-77.304-22.576 7.964-45.832 17.378-69.406 28.072 16.612 8.964 33.254 18.458 49.83 28.54 11.16 6.778 22.040 13.71 32.686 20.692zM473.772 274.25c-28.456-12.928-56.444-23.908-83.318-32.804-6.464 28.456-11.712 59.528-15.41 93.032 15.878-10.83 32.088-21.476 48.914-31.704 16.578-10.082 33.204-19.578 49.814-28.524zM335.544 405.782c-17.476 13.862-34.036 27.956-49.348 42.168 15.028 14.012 31.62 28.156 49.348 42.284-0.518-13.876-0.8-27.954-0.8-42.232-0.002-14.282 0.282-28.36 0.8-42.22zM375.078 561.74c3.682 33.404 8.93 64.406 15.376 92.814 26.872-8.896 54.846-19.876 83.3-32.788-16.61-8.964-33.27-18.458-49.846-28.538-16.878-10.264-33.136-20.794-48.83-31.488zM550.624 621.764c23.574 10.696 46.814 20.092 69.39 28.056 5.264-24.006 9.762-49.73 13.11-77.27-10.646 6.998-21.508 13.896-32.652 20.676-16.576 10.080-33.238 19.576-49.848 28.538zM673.26 502.278c23.724-18.092 45.548-36.286 64.842-54.278-19.294-17.978-41.118-36.17-64.842-54.262 0.866 17.742 1.366 35.836 1.366 54.262 0.002 18.424-0.498 36.518-1.366 54.278zM504.676 840.38c38.87 0 80.336-59.278 107.092-157.106-32.188-11.196-65.658-25.258-99.578-41.8-38.786 18.91-76.938 34.536-113.29 46.398 26.792 95.064 67.526 152.508 105.776 152.508zM176.872 651.77c14.444 23.774 50.646 28.772 78.486 28.772 29.554 0 64.408-5.664 102.228-16.044-9.048-39.284-15.696-82.668-19.41-129.066-27.974-20.894-53.58-42.25-76.438-63.676-14.61 14.962-28.006 29.922-39.7 44.782-45.7 57.996-62.16 107.276-45.166 135.232zM255.34 215.44c-27.824 0-64.024 4.998-78.47 28.756-20.808 34.254 10.496 103.51 84.916 179.914 23.124-21.542 48.798-42.75 76.37-63.342 3.698-46.482 10.362-89.932 19.426-129.282-37.816-10.366-72.67-16.046-102.242-16.046zM504.676 55.62c-38.25 0-78.984 57.442-105.776 152.49 36.354 11.878 74.522 27.49 113.29 46.416 33.92-16.544 67.39-30.604 99.578-41.816-26.756-97.83-68.222-157.090-107.092-157.090zM847.492 244.196c-14.444-23.758-50.63-28.756-78.454-28.756-33.22 0-73.054 7.132-116.354 20.094 7.83 34.852 13.746 72.87 17.46 113.288 34.254 24.574 65.224 49.93 92.38 75.336 74.456-76.42 105.776-145.708 84.968-179.962z" />
<glyph unicode="&#xe61a;" d="M187.852 857.44v-818.88l324.14 238.84 324.156-238.84v818.88h-648.296zM802.028 106.084l-290.036 213.7-290.020-213.7v717.236h580.056v-717.236zM341.392 652.72h341.208v-34.12h-341.208v34.12zM341.392 516.24h341.208v-34.12h-341.208v34.12z" />
<glyph unicode="&#xe61b;" d="M869.776 225.636h-719.918l143.744 143.794-24.124 24.124-183.762-183.81 183.762-183.78 24.124 24.126-141.412 141.426h751.706v307.080h-34.12zM153.39 669.196h719.62l-142.578-142.61 24.122-24.124 183.73 183.76-183.762 183.814-24.124-24.126 142.544-142.594h-753.672v-307.080h34.12z" />
<glyph unicode="&#xe61c;" d="M887.32 362.742c0-206.954-168.366-375.32-375.32-375.32-206.952 0-375.32 168.366-375.32 375.32 0 206.468 167.6 374.502 373.904 375.286v-170.65l324.14 187.678-324.14 187.642v-170.55c-225.512-0.766-408.024-183.71-408.024-409.406 0-226.094 183.278-409.44 409.44-409.44 226.128 0 409.44 183.346 409.44 409.44h-34.12zM544.704 883.522l221.914-128.466-221.914-128.5v256.966z" />
<glyph unicode="&#xe61d;" d="M836.632 499.364c0.066 2.732 0.4 5.364 0.4 8.096 0 146.042-118.388 264.43-264.43 264.43-105.226 0-195.824-61.608-238.392-150.574-18.41 9.264-39.134 14.594-61.144 14.594-67.538 0-123.484-49.148-134.414-113.588-80.432-27.59-138.36-103.694-138.36-193.526 0-112.988 91.58-204.586 204.536-204.686l632.204 0.032c103.192 0.534 186.676 84.3 186.676 187.594 0 103.46-83.682 187.328-187.076 187.628zM836.848 158.262l-7.446-0.032h-624.54c-93.98 0.098-170.45 76.602-170.45 170.566 0 72.806 46.348 137.612 115.306 161.272l19.192 6.562 3.382 19.992c8.364 49.348 50.746 85.166 100.776 85.166 15.944 0 31.354-3.698 45.8-10.962l31.106-15.626 15.010 31.386c38.136 79.702 119.636 131.182 207.62 131.182 127 0 230.31-103.294 230.31-230.31 0-0.7-0.084-1.434-0.134-2.132-0.098-1.7-0.214-3.398-0.25-5.132l-0.866-34.82 34.87-0.134c84.4-0.234 153.056-69.106 153.056-153.508-0.002-84.164-68.526-153.036-152.742-153.47zM511.992 277.65c-65.84 0-119.42 53.546-119.42 119.42 0 65.842 53.58 119.42 119.42 119.42v-63.010l128.4 74.138-128.4 74.172v-51.18c-84.8 0-153.54-68.74-153.54-153.54s68.74-153.54 153.54-153.54c84.784 0 153.54 68.74 153.54 153.54h-34.12c0-65.874-53.58-119.42-119.42-119.42z" />
<glyph unicode="&#xe61e;" d="M899.65 668.868c-0.35 0.116-0.616 0.382-0.982 0.466l-723.952 170.6c-9.178 2.116-18.376-3.532-20.524-12.694-2.15-9.18 3.532-18.36 12.696-20.526l581.072-136.928h-614.628c-26.408 0-47.832-21.408-47.832-47.832v-518.514c0-26.406 21.426-47.814 47.832-47.814h757.336c26.424 0 47.832 21.408 47.832 47.814v518.512c0 23.34-16.726 42.716-38.85 46.916zM904.38 103.438c0-7.548-6.146-13.694-13.712-13.694h-757.336c-7.564 0-13.712 6.146-13.712 13.694v518.514c0 7.562 6.148 13.712 13.712 13.712h757.336c7.564 0 13.712-6.148 13.712-13.712v-518.514zM392.446 396.838c-14.128 0-25.622-11.46-25.622-25.59 0-14.094 11.496-25.59 25.622-25.59 14.094 0 25.558 11.496 25.558 25.59 0 14.13-11.462 25.59-25.558 25.59zM204.92 371.248c0 14.13-11.496 25.59-25.606 25.59-14.096 0-25.574-11.46-25.574-25.59 0-14.094 11.48-25.59 25.574-25.59 14.11 0 25.606 11.498 25.606 25.59zM605.848 396.838c-14.094 0-25.608-11.46-25.608-25.59 0-14.094 11.514-25.59 25.608-25.59 14.144 0 25.572 11.496 25.572 25.59 0 14.13-11.428 25.59-25.572 25.59zM298.734 347.076c-14.096 0-25.574-11.462-25.574-25.574 0-14.11 11.48-25.606 25.574-25.606 14.11 0 25.606 11.494 25.606 25.606s-11.496 25.574-25.606 25.574zM512 320.068c0 14.112-11.46 25.574-25.59 25.574-14.094 0-25.59-11.462-25.59-25.574 0-14.11 11.496-25.606 25.59-25.606 14.13 0.002 25.59 11.496 25.59 25.606zM298.734 448.004c-14.096 0-25.574-11.48-25.574-25.574 0-14.144 11.48-25.606 25.574-25.606 14.11 0 25.606 11.46 25.606 25.606 0 14.094-11.496 25.574-25.606 25.574zM486.41 396.824c14.13 0 25.59 11.46 25.59 25.606 0 14.094-11.46 25.574-25.59 25.574-14.094 0-25.59-11.48-25.59-25.574 0-14.146 11.496-25.606 25.59-25.606zM213.45 293.996c-14.11 0-25.59-11.46-25.59-25.59 0-14.128 11.48-25.59 25.59-25.59 14.094 0 25.59 11.462 25.59 25.59s-11.496 25.59-25.59 25.59zM571.728 293.996c-14.144 0-25.608-11.46-25.608-25.59 0-14.128 11.462-25.59 25.608-25.59 14.112 0 25.572 11.462 25.572 25.59s-11.46 25.59-25.572 25.59zM213.45 499.184c-14.11 0-25.59-11.496-25.59-25.608s11.48-25.572 25.59-25.572c14.094 0 25.59 11.46 25.59 25.572 0 14.11-11.496 25.608-25.59 25.608zM571.728 448.004c14.112 0 25.572 11.46 25.572 25.572 0 14.11-11.46 25.608-25.572 25.608-14.144 0-25.608-11.496-25.608-25.608s11.462-25.572 25.608-25.572zM280.392 226.224c-14.078 0-25.59-11.462-25.59-25.574 0-14.11 11.512-25.606 25.59-25.606 14.162 0 25.59 11.496 25.59 25.606s-11.428 25.574-25.59 25.574zM502.804 226.224c-14.112 0-25.59-11.462-25.59-25.574 0-14.11 11.478-25.606 25.59-25.606 14.128 0 25.59 11.496 25.59 25.606s-11.462 25.574-25.59 25.574zM281.69 516.244c14.162 0 25.59 11.46 25.59 25.572 0 14.144-11.428 25.608-25.59 25.608-14.076 0-25.59-11.462-25.59-25.608 0-14.112 11.514-25.572 25.59-25.572zM502.804 567.424c-14.112 0-25.59-11.462-25.59-25.608 0-14.112 11.478-25.572 25.59-25.572 14.128 0 25.59 11.46 25.59 25.572 0 14.144-11.462 25.608-25.59 25.608zM392.432 293.996c-14.112 0-25.608-11.46-25.608-25.59 0-14.094 11.496-25.59 25.608-25.59 14.11 0 25.572 11.496 25.572 25.59 0 14.128-11.462 25.59-25.572 25.59zM392.432 192.136c-14.112 0-25.608-11.496-25.608-25.608 0-14.11 11.496-25.606 25.608-25.606 14.11 0 25.572 11.496 25.572 25.606 0 14.112-11.462 25.608-25.572 25.608zM392.432 499.184c-14.112 0-25.608-11.496-25.608-25.608s11.496-25.572 25.608-25.572c14.11 0 25.572 11.46 25.572 25.572 0 14.11-11.462 25.608-25.572 25.608zM392.432 601.544c-14.112 0-25.608-11.462-25.608-25.574 0-14.11 11.496-25.606 25.608-25.606 14.11 0 25.572 11.496 25.572 25.606s-11.462 25.574-25.572 25.574zM784.994 567.424c-28.256 0-51.214-22.908-51.214-51.164 0-28.254 22.958-51.162 51.214-51.162 28.222 0 51.146 22.908 51.146 51.162 0 28.256-22.924 51.164-51.146 51.164zM784.994 499.216c-9.43 0-17.094 7.648-17.094 17.042 0 9.396 7.666 17.044 17.094 17.044 9.396 0 17.026-7.648 17.026-17.044 0-9.394-7.63-17.042-17.026-17.042zM784.994 430.944c-28.256 0-51.214-22.908-51.214-51.164 0-28.254 22.958-51.162 51.214-51.162 28.222 0 51.146 22.908 51.146 51.162 0 28.256-22.924 51.164-51.146 51.164zM784.994 362.736c-9.43 0-17.094 7.648-17.094 17.042 0 9.396 7.666 17.044 17.094 17.044 9.396 0 17.026-7.648 17.026-17.044 0-9.394-7.63-17.042-17.026-17.042z" />
<glyph unicode="&#xe61f;" d="M239.040 567.42c-18.86 0-34.12-15.278-34.12-34.12s15.26-34.12 34.12-34.12c18.826 0 34.12 15.278 34.12 34.12s-15.294 34.12-34.12 34.12zM341.4 567.42c-18.86 0-34.12-15.278-34.12-34.12s15.26-34.12 34.12-34.12c18.826 0 34.12 15.278 34.12 34.12s-15.294 34.12-34.12 34.12zM938.5 703.9h-187.66v170.6h-477.68v-170.6h-187.66c-9.43 0-17.060-7.63-17.060-17.060v-511.8c0-9.43 7.63-17.060 17.060-17.060h187.66v-136.48h477.68v136.48h187.66c9.428 0 17.060 7.63 17.060 17.060v511.8c0 9.43-7.632 17.060-17.060 17.060zM307.28 840.38h409.44v-136.48h-409.44v136.48zM716.72 55.62h-409.44v307.080h409.44v-307.080zM921.44 192.1h-170.6v204.72h-477.68v-204.72h-170.6v477.68h818.88v-477.68z" />
<glyph unicode="&#xe620;" d="M512 448.018l477.68-272.978v545.92l-477.68-272.942zM955.56 233.834l-374.788 214.184 374.788 214.148v-428.332zM34.32 448.018l477.68-272.978v545.92l-477.68-272.942zM477.88 233.834l-374.788 214.184 374.788 214.148v-428.332z" />
<glyph unicode="&#xe621;" d="M489.776 874.5h34.12v-409.44h-34.12v409.44zM677.436 805.462v-37.736c124.202-61.26 209.884-189.192 209.884-336.784 0-206.952-168.366-375.32-375.32-375.32-206.952 0-375.32 168.368-375.32 375.32 0 143.478 80.954 268.346 199.556 331.488v38.366c-138.162-65.776-233.676-206.636-233.676-369.856 0-226.128 183.314-409.44 409.44-409.44 226.128 0 409.44 183.312 409.44 409.44 0 167.236-100.31 310.962-244.004 374.522z" />
<glyph unicode="&#xe622;" d="M631.42 729.49v85.3h-238.84v-85.3h-290.020v-648.28h818.88v648.28h-290.020zM426.7 780.67h170.6v-51.18h-170.6v51.18zM392.58 695.37h494.74v-272.96h-255.9v68.24h-238.84v-68.24h-255.9v272.96h255.9zM597.3 456.53v-102.36h-170.6v102.36h170.6zM136.68 115.33v272.96h255.9v-68.24h238.84v68.24h255.9v-272.96h-750.64z" />
<glyph unicode="&#xe623;" d="M512 874.496c-235.574 0-426.5-190.926-426.5-426.5s190.926-426.492 426.5-426.492c235.576 0 426.5 190.916 426.5 426.492s-190.924 426.5-426.5 426.5zM512 55.624c-216.348 0-392.38 176.024-392.38 392.372 0 216.35 176.032 392.38 392.38 392.38s392.38-176.030 392.38-392.38c0-216.348-176.032-392.372-392.38-392.372zM529.060 703.896h-34.12v-238.84h-237.708v-34.12h237.708v-237.708h34.12v237.708h238.84v34.12h-238.84z" />
<glyph unicode="&#xe624;" d="M239.040 746.85l512.316-298.85-512.316-298.848v597.698zM204.92 806.26v-716.52l614.16 358.26-614.16 358.26z" />
<glyph unicode="&#xe625;" d="M291.948-14.852l-42.552 200.588-202.168 44.698 41.3 79.186 185.11 10.114c9.498 12.362 30.722 39.484 43.984 52.73l168.668 168.684-351.646 172.416 89.032 89.014 445.826-78.204 157.856 157.856c18.71 18.726 47.864 28.622 84.3 28.622 24.84 0 44.632-4.566 45.464-4.764l9.596-2.248 2.848-9.43c14.994-49.614 5.98-105.542-21.426-132.964l-158.604-158.606 77.902-444.008-89.016-89.032-171.732 350.23-157.538-157.572c-16.56-16.56-51.928-49.148-65.058-61.178l-13.778-173.614-78.368-42.518zM98.074 254.126l180.146-39.802 37.62-177.398 21.924 11.896 13.378 168.568 4.964 4.532c0.5 0.45 49.348 45.082 68.906 64.642l191.31 191.342 171.732-350.23 42.7 42.716-77.902 444.042 171.166 171.134c14.86 14.86 23.856 51.128 15.476 89.048-6.898 1.032-16.826 2.116-27.838 2.116-18.96 0-44.782-3.232-60.178-18.626l-170.384-170.416-445.856 78.202-42.716-42.7 351.646-172.416-202.422-202.44c-15.442-15.426-45.382-55.094-45.682-55.478l-4.782-6.33-181.496-9.928-11.712-22.474z" />
<glyph unicode="&#xe626;" d="M853.196 686.84v136.48h-801.812v-614.16h119.42v-136.48h801.812v614.16h-119.42zM85.504 243.28v545.92h733.572v-102.36h-648.272v-443.56h-85.3zM938.496 106.8h-733.572v545.92h733.572v-545.92z" />
<glyph unicode="&#xe627;" d="M738.762 908.62h-453.522c-25.508 0-46.2-20.71-46.2-46.216v-828.826c0-25.54 20.692-46.198 46.2-46.198h453.522c25.508 0 46.198 20.658 46.198 46.198v828.826c0 25.506-20.69 46.216-46.198 46.216zM750.84 33.578c0-6.664-5.414-12.078-12.078-12.078h-453.522c-6.666 0-12.080 5.414-12.080 12.078v158.404h477.68v-158.404zM750.84 226.102h-477.68v545.338h477.68v-545.338zM750.84 805.56h-477.68v56.844c0 6.664 5.414 12.096 12.080 12.096h453.522c6.666 0 12.078-5.432 12.078-12.096v-56.844zM460.82 123.86h102.36v-34.12h-102.36v34.12z" />
<glyph unicode="&#xe628;" d="M984.682 774.34l-136.046 136.030-33.288-33.302-46.582 46.548c-6.664 6.664-17.46 6.664-24.122 0l-276.428-276.444c-6.664-6.666-6.664-17.46 0-24.124 3.334-3.332 7.698-4.998 12.064-4.998 4.364 0 8.73 1.666 12.062 4.998l264.364 264.38 34.52-34.486-586.206-586.188 39.518-39.534c-16.626 8.23-34.752 12.428-52.88 12.428-30.62 0-61.242-11.68-84.6-35.054-2.398-2.366-4.698-4.932-6.898-7.614-1.098-1.282-2.132-2.616-3.132-3.948-1.2-1.5-2.332-3.082-3.43-4.666-0.834-1.166-1.666-2.3-2.432-3.464-49.614-74.588-51.846-217.248-51.846-217.248s5.198-0.266 14.194-0.266c40.984 0 160.304 5.614 222.746 68.040 37.186 37.202 44.682 92.796 22.59 137.496l42.216-42.2 643.616 643.616zM252.134 59.552c-38.084-38.068-104.892-51.212-152.54-55.712l77.672 77.67-24.126 24.124-74.404-74.404c6.064 45.514 18.126 100.66 40.952 134.93l0.966 1.364 0.832 1.184c0.734 1.066 1.5 2.164 2.832 3.848 0.566 0.748 1.132 1.498 2.132 2.698 1.5 1.798 3.034 3.532 4.732 5.214 16.16 16.16 37.62 25.058 60.476 25.058 22.824 0 44.316-8.896 60.476-25.058 33.322-33.334 33.322-87.58 0-120.916zM936.436 774.34l-202.356-202.356-87.8 87.782 202.356 202.356 87.8-87.782zM622.158 635.644l87.8-87.782-368.892-368.89-87.798 87.782 368.89 368.89z" />
<glyph unicode="&#xe629;" d="M396.128 328.412l152.524-306.912 389.798 853-852.9-409.34 310.578-136.748zM405.192 361.668l-238.090 104.826 653.876 313.81-415.786-418.636zM547.386 100.302l-118.004 237.476 419.486 422.332-301.482-659.808z" />
<glyph unicode="&#xe62a;" d="M895.85 789.2v52.912c0 46.15-37.42 83.568-83.568 83.568h-549.352c-46.148 0-83.534-37.42-83.534-83.568v-52.912h-15.662c-38.518 0-69.706-31.222-69.706-69.724v-116.77c0-38.502 31.188-69.722 69.706-69.722l321.176 0.1c19.626 0 35.62-15.978 35.62-35.604v-117.72h-68.208v-409.44h170.6v409.44h-68.272v117.72c0 38.502-31.222 69.724-69.74 69.724h-42.25v-0.1h-278.924c-19.626 0-35.586 15.976-35.586 35.602v116.77c0 19.626 15.96 35.604 35.586 35.604h15.662v-52.93c0-46.15 37.386-83.55 83.534-83.55h549.35c46.15 0 83.568 37.4 83.568 83.55v52.93h34.12v34.12h-34.12zM588.802 4.44h-102.36v341.2h102.36v-341.2zM861.73 702.15c0-27.256-22.192-49.43-49.448-49.43h-549.352c-27.256 0-49.414 22.174-49.414 49.43v139.962c0 27.272 22.158 49.448 49.414 49.448h549.35c27.256 0 49.448-22.176 49.448-49.448v-139.962z" />
<glyph unicode="&#xe62b;" d="M512 857.44h-272.96c-81.636 0-136.48-54.844-136.48-136.48v-567.462c0-26.954 10.044-114.938 139.41-114.938h679.47v818.88h-409.44zM477.88 823.32v-326.388l-83.568 76.102-92.78-78.068v328.354h176.348zM239.040 823.32h28.372v-401.658l126 106.024 118.588-107.974v403.608h375.32v-562.98h-648.28c-43.418 0-78.636-12.96-102.36-35.62v496.24c0 62.176 40.184 102.36 102.36 102.36zM241.97 72.68c-78.218 0-100.826 35.486-104.608 69.442 0.066 52.662 38.052 84.098 101.678 84.098h648.28v-153.54h-645.35z" />
<glyph unicode="&#xe62c;" d="M888.946 825.674c-9.996 9.98-23.108 14.976-36.204 14.976-13.11 0-26.206-4.996-36.186-14.976l-150.59-150.574v28.522h-545.92v-648.272h648.28v545.912h-31.386l152.006 152.026c20.010 19.956 20.010 52.392 0 72.386zM734.206 89.47h-580.040v580.032h506.22l-267.38-267.362v-73.838h71.006l270.194 270.228v-509.060zM864.822 777.408l-414.938-414.986h-22.758v25.59l413.572 413.554c4.332 4.332 9.396 4.964 12.044 4.964 2.65 0 7.732-0.648 12.078-4.996 4.366-4.348 5.016-9.43 5.016-12.078 0.002-2.634-0.648-7.682-5.014-12.048z" />
<glyph unicode="&#xe62d;" d="M34.32 720.96v-545.92l477.68 272.978-477.68 272.942zM68.44 662.166l374.788-214.15-374.788-214.182v428.332zM512 720.96v-545.92l477.68 272.978-477.68 272.942zM546.12 662.166l374.788-214.15-374.788-214.182v428.332z" />
<glyph unicode="&#xe62e;" d="M290.22 874.5v-477.68h-204.72c0 0 0-210.85 0-278.99 0-68.156 63.442-96.33 110.456-96.33 46.998 0 520.33 0 640.184 0 51.714 0 102.36 50.298 102.36 102.36 0 37.586 0 750.64 0 750.64h-648.28zM195.956 55.62c-21.242 0-76.336 11.18-76.336 62.21v244.87h170.6v-230.16c0-22.84-29.854-76.92-76.918-76.92h-17.346zM904.38 123.86c0-33.152-35.068-68.24-68.24-68.24h-547.602c22.974 23.942 35.802 55.378 35.802 76.92v707.84h580.040v-716.52zM392.58 772.14h443.56v-34.12h-443.56v34.12zM392.58 311.52h443.56v-34.12h-443.56v34.12zM392.58 192.1h443.56v-34.12h-443.56v34.12zM836.14 652.72h-443.56v-255.9h443.56v255.9zM802.020 430.94h-375.32v187.66h375.32v-187.66z" />
<glyph unicode="&#xe62f;" d="M85.5 686.816h443.56v-34.12h-443.56v34.12zM85.5 533.276h443.56v-34.12h-443.56v34.12zM85.5 379.736h443.56v-34.12h-443.56v34.12zM699.66 666.424l238.84-30.788c0 170.6-136.48 204.72-272.96 238.89v-648.33c-20.424 0-52.912 0-105.126 0-100.276 0-133.714-53.062-133.714-101.528 0-41.116 30.772-103.192 136.48-103.192 151.142 0 136.48 121.352 136.48 204.72v440.228zM901.314 674.838l-201.654 25.988v129.618c113.39-30.706 186.212-64.426 201.654-155.606zM640.55 79.070c-15.36-15.578-41.402-23.474-77.37-23.474-97.428 0-102.36 57.546-102.36 69.072 0 42.834 36.304 67.408 99.594 67.408h105.126v-26.206h0.084c-1.018-34.372-5.898-67.374-25.074-86.8z" />
<glyph unicode="&#xe630;" d="M921.44 913.442l-562.98-199.156v-493.358c-26.606 31.572-66.39 51.68-110.89 51.68-80.070 0-145.010-64.94-145.010-145.042 0-80.070 64.94-145.010 145.010-145.010 79.236 0 143.542 63.608 144.876 142.528h0.134v565.080l494.74 175.032v-456.622c-26.606 31.572-66.39 51.662-110.908 51.662-80.084 0-144.992-64.908-144.992-145.010 0-80.084 64.908-145.010 144.992-145.010s145.028 64.926 145.028 145.010c0 2.748-0.266 5.43-0.416 8.13h0.416v590.086zM247.57 16.678c-61.144 0-110.89 49.746-110.89 110.89 0 61.158 49.746 110.922 110.89 110.922s110.89-49.764 110.89-110.922c0-61.144-49.746-110.89-110.89-110.89zM776.412 204.338c-61.144 0-110.872 49.746-110.872 110.89s49.73 110.89 110.872 110.89c61.16 0 110.908-49.746 110.908-110.89s-49.746-110.89-110.908-110.89z" />
<glyph unicode="&#xe631;" d="M529.060 686.008v52.712c0 15.578 32.92 36.186 59.376 52.764 37.902 23.724 77.104 48.282 77.104 84.052v84.264h-34.12v-84.266c0-16.878-33.87-38.084-61.094-55.144-37.068-23.192-75.386-47.198-75.386-81.67v-52.712c-133.332-8.564-238.84-116.022-238.84-247.654v-253.666c0-137.23 114.572-248.488 255.9-248.488 141.326 0 255.9 111.256 255.9 248.488v253.666c0 131.632-105.51 239.090-238.84 247.654zM733.78 438.354v-24.474h-204.72v238.008c114.32-8.482 204.72-100.896 204.72-213.534zM290.22 438.354c0 112.638 90.398 205.052 204.72 213.534v-238.008h-204.72v24.474zM512-29.68c-122.286 0-221.78 96.162-221.78 214.368v195.072h443.56v-195.072c0-118.206-99.496-214.368-221.78-214.368z" />
<glyph unicode="&#xe632;" d="M102.56 550.36c-56.544 0-102.36-45.832-102.36-102.36s45.816-102.36 102.36-102.36c56.51 0 102.36 45.832 102.36 102.36s-45.85 102.36-102.36 102.36zM102.56 379.76c-37.652 0-68.24 30.604-68.24 68.24 0 37.634 30.588 68.24 68.24 68.24 37.618 0 68.24-30.606 68.24-68.24 0-37.636-30.622-68.24-68.24-68.24zM921.44 550.36c-56.544 0-102.36-45.832-102.36-102.36s45.816-102.36 102.36-102.36c56.51 0 102.36 45.832 102.36 102.36s-45.85 102.36-102.36 102.36zM921.44 379.76c-37.618 0-68.24 30.604-68.24 68.24 0 37.634 30.622 68.24 68.24 68.24s68.24-30.606 68.24-68.24c0-37.636-30.622-68.24-68.24-68.24zM512 550.36c-56.544 0-102.36-45.832-102.36-102.36s45.816-102.36 102.36-102.36c56.51 0 102.36 45.832 102.36 102.36s-45.85 102.36-102.36 102.36zM512 379.76c-37.618 0-68.24 30.604-68.24 68.24 0 37.634 30.622 68.24 68.24 68.24s68.24-30.606 68.24-68.24c0-37.636-30.622-68.24-68.24-68.24z" />
<glyph unicode="&#xe633;" d="M316.21 798.338c-27.090-54.946-41.434-115.638-41.434-178.046 0-223.262 181.644-404.892 404.908-404.892 65.676 0 129.134 15.66 185.978 45.182-68.79-123.802-199.938-203.836-347.598-203.836-219.696 0-398.444 178.73-398.444 398.428 0 143.708 77.104 273.042 196.59 343.164zM409.29 873.374c-186.144-48.278-323.79-216.948-323.79-418.202 0-238.874 193.692-432.548 432.564-432.548 204.388 0 375.222 141.928 420.436 332.436-66.79-65.24-158.038-105.542-258.816-105.542-204.77 0-370.788 166-370.788 370.772 0.002 97.964 38.286 186.812 100.394 253.084v0z" />
<glyph unicode="&#xe634;" d="M955.56 226.22v614.16h-887.12v-614.16h426.5v-136.48h-119.42v-34.12h272.96v34.12h-119.42v136.48h426.5zM102.56 806.26h818.88v-545.92h-818.88v545.92z" />
<glyph unicode="&#xe635;" d="M512.084 243.942c103.382 0 187.22 83.82 187.22 187.22v340.434c0 103.4-83.838 187.204-187.22 187.204s-187.22-83.804-187.22-187.204v-340.432c0-103.4 83.836-187.222 187.22-187.222zM358.904 771.596c0 84.454 68.712 153.164 153.18 153.164s153.18-68.712 153.18-153.164v-340.432c0-84.468-68.712-153.18-153.18-153.18s-153.18 68.712-153.18 153.18v340.432zM767.3 601.38v-170.218c0-140.764-114.52-255.3-255.3-255.3s-255.3 114.536-255.3 255.3v170.218h-34.040v-170.218c0-154.56 121.916-280.83 274.582-288.592h-2.178v-171.33h-153.264v-34.040h340.4v34.040h-153.096v171.33h-2.344c152.666 7.762 274.58 134.032 274.58 288.592v170.218h-34.040z" />
<glyph unicode="&#xe636;" d="M102.56 738.020v-136.48h818.88v136.48h-818.88zM887.32 635.66h-750.64v68.24h750.64v-68.24zM102.56 379.76h818.88v136.48h-818.88v-136.48zM136.68 482.12h750.64v-68.24h-750.64v68.24zM102.56 157.98h818.88v136.48h-818.88v-136.48zM136.68 260.34h750.64v-68.24h-750.64v68.24z" />
<glyph unicode="&#xe637;" d="M737.744 851.192l-21.024 10.512-17.060-8.512v-0.018l-187.66-93.828-204.72 102.36-221.78-110.89v-716.52l221.78 110.89 204.72-102.36 204.72 102.36 221.78-110.89v716.52l-200.756 100.376zM290.22 174.808l-170.6-85.3v640.216l170.6 85.3v-640.216zM494.94 89.508l-170.6 85.3v640.216l170.6-85.3v-640.216zM699.66 174.808l-170.6-85.3v640.216l170.6 85.3v-640.216zM904.38 89.508l-170.6 85.3v640.216l170.6-85.3v-640.216z" />
<glyph unicode="&#xe638;" d="M512.018 925.696c169.318 0 307.062-137.762 307.062-307.096 0-53.846-14.26-106.926-41.266-153.558l-265.814-460.602-265.846 460.636c-26.974 46.6-41.234 99.678-41.234 153.524 0 169.334 137.762 307.096 307.098 307.096zM512.018 499.196c65.842 0 119.402 53.564 119.402 119.404 0 65.822-53.562 119.386-119.402 119.386-65.858 0-119.438-53.564-119.438-119.386 0-65.84 53.578-119.404 119.438-119.404zM512.018 959.816c-188.444 0-341.218-152.806-341.218-341.216 0-62.226 16.742-120.388 45.832-170.618l295.368-511.798 295.368 511.8c29.090 50.23 45.832 108.39 45.832 170.618 0 188.408-152.774 341.214-341.182 341.214v0zM512.018 533.316c-47.114 0-85.318 38.168-85.318 85.284 0 47.064 38.202 85.266 85.318 85.266 47.098 0 85.282-38.202 85.282-85.266 0-47.116-38.186-85.284-85.282-85.284v0z" />
<glyph unicode="&#xe639;" d="M903.796 720.964h-818.296v-545.926h853v545.926h-34.704zM869.676 686.844l-329.538-329.538c-15.026-15.026-41.252-15.026-56.278 0l-329.588 329.538h715.404zM119.62 673.25l221.546-221.514-221.546-221.546v443.060zM146.842 209.164l218.466 218.432 94.428-94.414c13.944-13.962 32.522-21.66 52.264-21.66s38.318 7.698 52.264 21.66l94.428 94.428 218.448-218.446h-730.298zM904.38 230.172l-221.546 221.564 221.546 221.564v-443.128z" />
<glyph unicode="&#xe63a;" d="M935.318 533.058l-371.056 371.056c-13.944 13.962-32.52 21.658-52.264 21.658-19.742 0-38.316-7.696-52.262-21.658l-374.236-374.188v-559.698h853v559.648l-3.182 3.182zM140.146 536.324l343.716 343.666c15.028 15.028 41.252 15.028 56.28 0l359.876-359.892-245.24-245.24-90.514 90.532c-13.944 13.96-32.52 21.658-52.264 21.658-19.742 0-38.316-7.698-52.262-21.658l-91.864-91.848-245.254 245.256 17.526 17.526zM343.734 249.436l-2.534-2.566-0.032 0.034-221.548-221.53v448.174l224.114-224.112zM146.842 4.348l18.342 18.342h0.052l318.624 318.576c15.028 15.028 41.252 15.028 56.28 0l337.002-336.918h-730.3zM904.38 461.77v-436.414l-225.478 225.38 225.478 225.478v-14.444z" />
<glyph unicode="&#xe63b;" d="M935.318 533.058l-371.054 371.054c-13.944 13.962-32.522 21.658-52.264 21.658s-38.318-7.696-52.264-21.658l-80.902-80.884h-122.718v-122.702l-170.616-170.6v-559.698h853v559.648l-3.182 3.182zM900.014 520.096l-132.114-132.114v264.23l132.114-132.116zM483.862 879.99c15.028 15.028 41.252 15.028 56.278 0l56.762-56.76h-169.816l56.776 56.76zM631.020 789.108l102.76-102.776v-332.47l-79.004-79.004-90.514 90.532c-13.944 13.96-32.522 21.658-52.264 21.658s-38.318-7.698-52.264-21.658l-91.862-91.848-77.636 77.636v437.93h340.784zM140.144 536.324l115.972 115.956v-266.98l-133.496 133.498 17.524 17.526zM119.62 446.144v27.404l224.112-224.112-2.532-2.566-0.034 0.034-221.546-221.53v420.77zM146.842 4.348l18.342 18.342h0.050l318.626 318.576c15.028 15.028 41.252 15.028 56.278 0l337.002-336.918h-730.298zM904.38 468.484v-443.128l-225.478 225.38 225.478 225.478v-7.73zM392.58 686.748h238.84v-34.12h-238.84v34.12zM392.58 482.028h238.84v-34.12h-238.84v34.12zM392.58 584.388h170.6v-34.12h-170.6v34.12z" />
<glyph unicode="&#xe63c;" d="M683.034 874.5v-477.246c0-94.462-76.57-171.034-171.034-171.034-94.498 0-171.034 76.57-171.034 171.034v477.246h-204.286v-477.68c0-207.286 168.034-375.32 375.32-375.32s375.32 168.034 375.32 375.32v477.68h-204.286zM853.2 840.38v-102.36h-136.046v102.36h136.046zM306.846 840.38v-102.36h-136.046v102.36h136.046zM512 55.62c-188.16 0-341.2 153.056-341.2 341.2v307.080h136.046v-306.646c0-113.124 92.030-205.154 205.154-205.154 113.122 0 205.154 92.030 205.154 205.154v306.646h136.046v-307.080c0-188.144-153.074-341.2-341.2-341.2z" />
<glyph unicode="&#xe63d;" d="M654.776 613.636l-296.484-294.286 24.092-24.188 296.484 294.284zM221.98 260.34c-103.476 0-187.66 84.184-187.66 187.66 0 103.478 84.184 187.66 187.66 187.66 50.114 0 95.578-19.858 129.268-51.964l0.016 0.184 1.734-1.516 66.424-66.124h-60.962v-34.12h119.42v119.42h-34.12v-61.392l-66.674 66.374-0.15-0.15c-40.018 39.168-94.68 63.408-154.956 63.408-122.286 0-221.78-99.494-221.78-221.78 0-122.284 99.494-221.78 221.78-221.78 63.058 0 119.92 26.59 160.354 68.99l-24.108 24.124c-34.236-36.236-82.584-58.994-136.246-58.994zM802.020 669.78c-56.478 0-107.924-21.392-147.108-56.278l24.106-24.108c32.972 28.722 75.938 46.266 123.002 46.266 103.476 0 187.66-84.182 187.66-187.66 0-103.476-84.184-187.66-187.66-187.66-49.932 0-95.246 19.726-128.9 51.63l-0.050-0.316-112.988 112.572-24.226-24.040 113.124-112.69 0.2 0.202c39.836-37.986 93.596-61.478 152.84-61.478 122.286 0 221.78 99.496 221.78 221.78 0 122.286-99.494 221.78-221.78 221.78z" />
<glyph unicode="&#xe63e;" d="M512 755.076c-187.094 0-332.936-117.104-511.8-306.962 154.106-162.338 283.422-307.19 511.8-307.19s396.228 183.372 511.8 303.756c-118.304 141.030-286.172 310.396-511.8 310.396zM512 175.044c-202.738 0-325.122 125.742-464.752 273.036 166.136 173.232 298.234 272.876 464.752 272.876 197.14 0 351.212-142.16 465.85-274.908-112.738-117.554-265.378-271.004-465.85-271.004zM512 652.7c-112.89 0-204.72-91.832-204.72-204.704s91.83-204.704 204.72-204.704 204.72 91.83 204.72 204.702-91.83 204.706-204.72 204.706zM512 277.412c-94.064 0-170.6 76.52-170.6 170.582 0 94.064 76.536 170.584 170.6 170.584s170.6-76.52 170.6-170.584c0-94.060-76.536-170.582-170.6-170.582zM512 567.416c-65.842 0-119.42-53.578-119.42-119.42 0-65.84 53.578-119.42 119.42-119.42s119.42 53.58 119.42 119.42c0 65.842-53.578 119.42-119.42 119.42zM512 362.696c-47.032 0-85.3 38.268-85.3 85.3s38.268 85.3 85.3 85.3 85.3-38.268 85.3-85.3c0-47.032-38.268-85.3-85.3-85.3z" />
<glyph unicode="&#xe63f;" d="M733.78 465.060v204.72c0 122.468-99.294 221.78-221.748 221.78-122.502 0-221.812-99.312-221.812-221.78v-204.72h-119.42v-460.62h682.4v460.62h-119.42zM324.34 669.78c0 103.476 84.2 187.66 187.692 187.66 103.46 0 187.628-84.184 187.628-187.66v-204.72h-375.32v204.72zM819.080 38.56h-614.16v392.38h614.16v-392.38z" />
<glyph unicode="&#xe640;" d="M273.16 959.8v-102.36l119.42-204.72v-716.52h238.84v716.52l119.42 204.72v102.36h-477.68zM307.28 925.68h409.44v-59.010l-5.38-9.23h-398.68l-5.38 9.23v59.010zM426.7-29.68v68.39h170.6v-68.39h-170.6zM601.948 669.914l-4.648-7.964v-589.12h-170.6v589.12l-94.13 161.37h358.86l-89.482-153.406zM512 482.12c-28.256 0-51.18-22.924-51.18-51.18v-68.306c0-28.24 22.924-51.18 51.18-51.18 28.254 0 51.18 22.94 51.18 51.18v68.306c0 28.256-22.926 51.18-51.18 51.18zM529.060 362.634c0-9.412-7.646-17.060-17.060-17.060s-17.060 7.648-17.060 17.060v68.306c0 9.414 7.646 17.060 17.060 17.060s17.060-7.646 17.060-17.060v-68.306z" />
<glyph unicode="&#xe641;" d="M561.072 294.636c-41.624 0-83.26 15.828-114.946 47.532l24.124 24.122c50.096-50.096 131.574-50.080 181.688 0l214.892 214.9c50.080 50.082 50.080 131.566 0 181.662l-40.018 40.002c-50.082 50.080-131.582 50.080-181.672 0l-151.648-151.642-24.124 24.124 151.65 151.64c63.374 63.376 166.51 63.408 229.918 0l40.018-40c63.376-63.392 63.376-166.534 0-229.91l-214.894-214.896c-31.688-31.69-73.338-47.534-114.988-47.534zM288.020 21.478c-43.416 0-84.25 16.91-114.954 47.614l-40.018 40.002c-63.376 63.408-63.376 166.534 0 229.91l214.898 214.916c63.376 63.374 166.552 63.374 229.92 0l40.018-40.018-24.124-24.124-40.018 40.018c-50.072 50.082-131.59 50.064-181.67 0l-214.9-214.916c-50.064-50.064-50.064-131.566 0-181.664l40.018-40c24.258-24.258 56.528-37.62 90.83-37.62 34.322 0 66.574 13.362 90.832 37.62l143.010 143.010 24.122-24.124-143.010-143.010c-30.686-30.706-71.52-47.614-114.954-47.614z" />
<glyph unicode="&#xe642;" d="M700.342 796.322c112.672 0 204.038-91.348 204.038-204.038 0-57.876-24.14-110.038-62.86-147.192l-329.52-331.17-335.484 337.136c-35.204 36.668-56.896 86.382-56.896 141.226 0 112.69 91.364 204.038 204.038 204.038 84.85 0 157.588-51.83 188.342-125.552 30.754 73.722 103.492 125.552 188.342 125.552zM700.342 830.442c-75.054 0-143.976-34.854-188.342-92.296-44.366 57.442-113.288 92.296-188.342 92.296-131.316 0-238.158-106.842-238.158-238.158 0-61.708 23.574-120.252 66.408-164.85l360.092-361.876 353.712 355.462c46.732 44.85 72.788 105.86 72.788 171.266 0 131.314-106.842 238.156-238.158 238.156v0z" />
<glyph unicode="&#xe643;" d="M853.2 601.814c0 188.426-152.74 341.2-341.2 341.2s-341.2-152.774-341.2-341.2c0-110.974 53.146-209.334 135.214-271.594l-0.15-0.084c1.566-1.066 3.182-2.282 4.848-3.582 0.166-0.116 0.316-0.25 0.466-0.366 26.408-20.84 64.342-69.522 64.342-133.782v-239.422h272.96v239.424c0 68.24 39.418 117.206 68.24 136.664l-0.084 0.098c82.852 62.21 136.564 161.056 136.564 272.644zM409.64-12.894v102.942h204.72v-102.942h-204.72zM512 567.712c-18.808 0-34.12 15.294-34.12 34.102 0 18.826 15.312 34.138 34.12 34.138s34.12-15.312 34.12-34.138c0-18.808-15.312-34.102-34.12-34.102zM696.144 356.462c-0.448-0.35-0.898-0.702-1.332-1.066-37.752-26.858-80.452-84.684-80.452-162.988v-68.24h-85.3v411.84c29.372 7.614 51.18 34.068 51.18 65.808 0 37.686-30.554 68.258-68.24 68.258s-68.24-30.572-68.24-68.258c0-31.738 21.808-58.194 51.18-65.808v-411.84h-85.3v68.24c0 73.472-41.65 132.416-77.020 160.322-0.266 0.234-0.598 0.468-0.916 0.734-1.116 0.866-2.214 1.7-3.28 2.5-0.584 0.5-1.166 0.982-1.782 1.432-77.354 58.694-121.72 147.778-121.72 244.422 0 169.318 137.762 307.080 307.080 307.080s307.080-137.762 307.080-307.080c-0.002-97.282-44.802-186.698-122.938-245.356z" />
<glyph unicode="&#xe644;" d="M512 874.5c-235.574 0-426.5-190.928-426.5-426.5 0-235.574 190.926-426.5 426.5-426.5s426.5 190.926 426.5 426.5c0 235.572-190.926 426.5-426.5 426.5zM512 55.62c-216.348 0-392.38 176.030-392.38 392.38 0 216.348 176.032 392.38 392.38 392.38s392.38-176.032 392.38-392.38c0-216.35-176.032-392.38-392.38-392.38zM291.354 465.060h442.426v-34.12h-442.426v34.12z" />
<glyph unicode="&#xe645;" d="M221.98 260.332c-56.528 0-102.36-45.814-102.36-102.342s45.832-102.36 102.36-102.36c56.512 0 102.36 45.832 102.36 102.36s-45.848 102.342-102.36 102.342zM221.98 89.748c-37.634 0-68.24 30.606-68.24 68.24 0 37.62 30.606 68.222 68.24 68.222 37.636 0 68.24-30.604 68.24-68.222 0-37.634-30.604-68.24-68.24-68.24zM221.98 840.372c-56.528 0-102.36-45.814-102.36-102.342s45.832-102.36 102.36-102.36c56.512 0 102.36 45.832 102.36 102.36s-45.848 102.342-102.36 102.342zM221.98 669.788c-37.634 0-68.24 30.606-68.24 68.24 0 37.62 30.606 68.222 68.24 68.222 37.636 0 68.24-30.604 68.24-68.222 0-37.634-30.604-68.24-68.24-68.24zM221.98 551.068c-56.528 0-102.36-45.814-102.36-102.342s45.832-102.36 102.36-102.36c56.512 0 102.36 45.832 102.36 102.36s-45.848 102.342-102.36 102.342zM221.98 380.486c-37.634 0-68.24 30.62-68.24 68.24s30.606 68.222 68.24 68.222c37.636 0 68.24-30.604 68.24-68.222s-30.604-68.24-68.24-68.24zM512 260.332c-56.528 0-102.36-45.814-102.36-102.342s45.832-102.36 102.36-102.36c56.512 0 102.36 45.832 102.36 102.36s-45.848 102.342-102.36 102.342zM512 89.748c-37.634 0-68.24 30.606-68.24 68.24 0 37.62 30.606 68.222 68.24 68.222 37.636 0 68.24-30.604 68.24-68.222 0-37.634-30.604-68.24-68.24-68.24zM512 840.372c-56.528 0-102.36-45.814-102.36-102.342s45.832-102.36 102.36-102.36c56.512 0 102.36 45.832 102.36 102.36s-45.848 102.342-102.36 102.342zM512 669.788c-37.634 0-68.24 30.606-68.24 68.24 0 37.62 30.606 68.222 68.24 68.222 37.636 0 68.24-30.604 68.24-68.222 0-37.634-30.604-68.24-68.24-68.24zM512 551.068c-56.528 0-102.36-45.814-102.36-102.342s45.832-102.36 102.36-102.36c56.512 0 102.36 45.832 102.36 102.36s-45.848 102.342-102.36 102.342zM512 380.486c-37.634 0-68.24 30.62-68.24 68.24s30.606 68.222 68.24 68.222c37.636 0 68.24-30.604 68.24-68.222s-30.604-68.24-68.24-68.24zM802.020 260.332c-56.528 0-102.36-45.814-102.36-102.342s45.832-102.36 102.36-102.36c56.512 0 102.36 45.832 102.36 102.36s-45.848 102.342-102.36 102.342zM802.020 89.748c-37.634 0-68.24 30.606-68.24 68.24 0 37.62 30.606 68.222 68.24 68.222 37.636 0 68.24-30.604 68.24-68.222 0-37.634-30.604-68.24-68.24-68.24zM802.020 635.668c56.512 0 102.36 45.832 102.36 102.36s-45.848 102.342-102.36 102.342c-56.528 0-102.36-45.814-102.36-102.342s45.832-102.36 102.36-102.36zM802.020 806.252c37.636 0 68.24-30.604 68.24-68.222 0-37.634-30.604-68.24-68.24-68.24-37.634 0-68.24 30.606-68.24 68.24 0 37.618 30.606 68.222 68.24 68.222zM802.020 551.068c-56.528 0-102.36-45.814-102.36-102.342s45.832-102.36 102.36-102.36c56.512 0 102.36 45.832 102.36 102.36s-45.848 102.342-102.36 102.342zM802.020 380.486c-37.634 0-68.24 30.62-68.24 68.24s30.606 68.222 68.24 68.222c37.636 0 68.24-30.604 68.24-68.222s-30.604-68.24-68.24-68.24z" />
<glyph unicode="&#xe646;" d="M638.75 482.754l-24.124 24.122-102.608-102.626-102.628 102.626-24.124-24.122 102.61-102.628-102.944-102.926 24.124-24.124 102.962 102.928 102.94-102.928 24.126 24.124-102.944 102.926zM938.5 737.986h-853v-34.12h25.074l9.046-68.24c0-27.222 16.044-50.512 39.084-61.476l60.176-350.996c6.298-35.72 29.172-65.142 65.142-65.142h455.956c35.952 0 57.778 28.89 65.14 65.142l60.178 350.996c23.042 10.962 39.084 34.254 39.084 61.476l9.046 68.24h25.074v34.12zM771.582 229.452c-2.948-14.162-10.928-37.318-31.604-37.318h-455.956c-23.224 0-30.006 28.288-31.52 36.786l-58.028 338.466h635.052l-57.944-337.934zM870.56 640.092l-0.3-2.232v-2.234c0-18.826-15.312-34.12-34.12-34.12h-648.28c-18.808 0-34.12 15.294-34.12 34.12v2.234l-0.3 2.232-8.446 63.776h734.014l-8.448-63.776z" />
<glyph unicode="&#xe647;" d="M514.132 603.006c28.254 0 51.18 22.926 51.18 51.18 0 28.288-22.926 51.148-51.18 51.148-28.256 0-51.18-22.858-51.18-51.148 0-28.256 22.924-51.18 51.18-51.18zM548.886 534.766v34.12h-102.36v-34.12h34.12v-290.020h-34.12v-34.12h136.48v34.12h-34.12zM512 874.5c-235.54 0-426.5-190.96-426.5-426.5 0-235.574 190.96-426.5 426.5-426.5s426.5 190.926 426.5 426.5c0 235.54-190.96 426.5-426.5 426.5zM512 55.62c-216.366 0-392.38 176.032-392.38 392.38s176.014 392.38 392.38 392.38c216.366 0 392.38-176.032 392.38-392.38s-176.014-392.38-392.38-392.38z" />
<glyph unicode="&#xe648;" d="M512 874.5l-170.6-170.6v68.24h-136.48v-204.72l-120.154-120.154 24.124-24.124 403.11 403.108 403.11-403.11 24.124 24.124-427.234 427.236zM239.040 738.020h68.24v-68.24l-68.24-68.24v136.48zM204.92 430.94v-409.44h238.84v238.84h136.48v-238.84h238.84v409.44l-307.080 307.080-307.080-307.080zM784.96 55.62h-170.6v238.84h-204.72v-238.84h-170.6v361.19l272.96 272.96 272.96-272.96v-361.19z" />
<glyph unicode="&#xe649;" d="M512 857.44c-226.112 0-409.44-183.294-409.44-409.44 0-226.126 183.312-409.422 409.44-409.44 226.146 0.018 409.44 183.328 409.44 409.44-0.016 226.128-183.312 409.44-409.44 409.44zM511.968 260.34c-103.46 0-187.628 84.184-187.628 187.66 0 103.478 84.184 187.66 187.66 187.66h0.034c103.458 0 187.626-84.182 187.626-187.66 0-103.458-84.182-187.642-187.692-187.66zM716.654 533.534l128.9 86.184c26.622-51.498 41.766-109.858 41.766-171.718 0-61.074-14.76-118.736-40.75-169.75l-129.134 86.366c10.464 25.758 16.344 53.864 16.344 83.384 0 30.322-6.114 59.21-17.126 85.534zM828.476 649.338l-127.684-85.366c-18.56 30.156-44.066 55.462-74.386 73.77l85.416 127.716c46.916-29.62 86.8-69.338 116.654-116.12zM682.1 782.386l-86.332-129.082c-25.84 10.564-54.078 16.476-83.734 16.476h-0.034c-29.656 0-57.878-5.912-83.734-16.476l-86.348 129.1c51.096 26.106 108.872 40.916 170.082 40.916s119.004-14.826 170.1-40.934zM312.194 765.494l85.434-127.734c-30.388-18.36-55.944-43.734-74.52-73.956l-127.7 85.4c29.872 46.834 69.822 86.616 116.786 116.29zM178.364 619.568l128.916-86.216c-10.962-26.29-17.060-55.096-17.060-85.352 0-29.438 5.866-57.494 16.276-83.182l-129.166-86.384c-25.922 50.964-40.65 108.574-40.65 169.566 0 61.794 15.112 120.104 41.684 171.568zM194.208 248.678l127.734 85.418c18.444-30.704 44.048-56.512 74.604-75.204l-85.398-127.684c-47.15 29.988-87.168 70.172-116.94 117.47zM340.802 114.182l86.234 128.95c26.172-10.864 54.828-16.912 84.934-16.912 0.018 0 0.032 0 0.032 0 30.122 0 58.812 6.064 85 16.944l86.234-128.966c-51.38-26.472-109.556-41.518-171.232-41.518-61.662 0-119.824 15.046-171.202 41.502zM712.888 131.224l-85.398 127.7c30.47 18.66 56.026 44.384 74.454 75.004l127.734-85.434c-29.756-47.196-69.724-87.316-116.79-117.27z" />
<glyph unicode="&#xe64a;" d="M512 874.5c-235.558 0-426.5-190.942-426.5-426.5 0-235.542 190.942-426.5 426.5-426.5s426.5 190.958 426.5 426.5c0 235.558-190.942 426.5-426.5 426.5zM512 55.62c-216.366 0-392.38 176.014-392.38 392.38s176.014 392.38 392.38 392.38 392.38-176.014 392.38-392.38c0-216.366-176.014-392.38-392.38-392.38zM510.552 671.596c-86.6 0-134.948-53.512-135.564-138.296h37.618c-1.182 61.508 31.056 106.64 96.146 106.64 46.566 0 85.384-32.838 85.384-80.602 0-31.054-16.728-56.128-38.818-77.036-45.366-42.118-58.094-61.91-60.378-119.602h38.102c2.25 52.312 1.084 51.262 46.75 96.912 30.454 28.656 51.946 57.344 51.946 101.528 0 69.256-54.93 110.456-121.186 110.456zM512 294.442c-18.826 0-34.12-15.278-34.12-34.102 0-18.86 15.294-34.12 34.12-34.12 18.842 0 34.12 15.26 34.12 34.12 0 18.826-15.278 34.102-34.12 34.102z" />
<glyph unicode="&#xe64b;" d="M904.38 499.18v-409.44h-170.6v750.64h-34.12v-750.64h-170.6v511.8h-34.12v-511.8h-170.6v204.72h-34.12v-204.72h-170.45v307.080h-34.12v-307.080h-0.15v-34.12h853v443.56z" />
<glyph unicode="&#xe64c;" d="M102.56 857.44v-818.88h818.88v818.88h-818.88zM887.32 823.32v-146.994l-224.728-324.206-154.074 121.754-171.4-239.972-101.192 67.456-99.246-115.69v637.652h750.64zM136.68 72.68v60.592l105.476 122.936 103.526-69.024 169.8 237.708 154.474-122.052 217.364 313.594v-543.754h-750.64z" />
<glyph unicode="&#xe64d;" d="M895.85 925.68c-47.032 0-85.3-38.252-85.3-85.268 0-29.638 15.228-55.76 38.236-71.054l-161.288-425.102c-4.464 0.734-8.962 1.384-13.61 1.384-20.442 0-38.968-7.53-53.68-19.56l-161.386 133.298c6.364 11.944 10.312 25.356 10.312 39.8 0 47.032-38.268 85.3-85.3 85.3-47.030 0-85.3-38.27-85.3-85.3 0-25.408 11.396-48.016 29.088-63.66l-171.966-299.53c-8.678 2.982-17.808 4.948-27.488 4.948-47.048 0-85.318-38.252-85.318-85.266 0-47.066 38.268-85.35 85.318-85.35 47.032 0 85.282 38.284 85.282 85.35 0 25.074-11.078 47.414-28.37 63.042l172.15 299.85c8.43-2.8 17.26-4.682 26.606-4.682 20.244 0 38.602 7.38 53.246 19.192l161.554-133.432c-6.198-11.83-10.046-25.058-10.046-39.302 0-47.032 38.27-85.3 85.3-85.3 47.032 0 85.3 38.268 85.3 85.3 0 30.272-15.96 56.728-39.784 71.888l161.036 424.402c5.016-0.916 10.13-1.55 15.41-1.55 47.032 0 85.3 38.284 85.3 85.332-0.002 47.018-38.27 85.27-85.302 85.27zM128.168 4.44c-28.222 0-51.198 22.974-51.198 51.23 0 28.206 22.974 51.146 51.198 51.146 28.206 0 51.162-22.94 51.162-51.146 0-28.256-22.958-51.23-51.162-51.23zM383.834 448c-28.222 0-51.18 22.958-51.18 51.18s22.958 51.18 51.18 51.18 51.18-22.958 51.18-51.18-22.958-51.18-51.18-51.18zM673.888 209.16c-28.222 0-51.18 22.958-51.18 51.18s22.958 51.18 51.18 51.18 51.18-22.958 51.18-51.18c0-28.222-22.958-51.18-51.18-51.18zM895.85 789.2c-28.222 0-51.18 22.972-51.18 51.212 0 28.206 22.958 51.148 51.18 51.148s51.18-22.942 51.18-51.148c0-28.24-22.958-51.212-51.18-51.212z" />
<glyph unicode="&#xe64e;" d="M938.508 448c0 229.794-181.83 417.104-409.456 426.066v0.434h-34.12v-0.434c-227.628-8.962-409.44-196.272-409.44-426.066 0-235.574 190.958-426.5 426.5-426.5 82.742 0 159.912 23.64 225.328 64.406l0.234-0.332 12.694 8.63c0.168 0.098 0.3 0.182 0.434 0.284l15.094 10.246-0.232 0.332c104.924 77.686 172.964 202.338 172.964 342.934zM870.968 606.188l-341.916-133.232v366.99c152.782-6.582 283.14-100.91 341.916-233.758zM511.992 55.62c-216.366 0-392.38 176.014-392.38 392.38 0 210.632 166.85 382.966 375.32 391.946v-397.196l223.13-328.486c-59.952-37.136-130.524-58.644-206.070-58.644zM746.284 133.422l-208.152 306.464 345.23 134.514c13.56-39.684 21.024-82.168 21.024-126.4 0.002-128.618-62.206-242.972-158.102-314.578z" />
<glyph unicode="&#xe64f;" d="M512 874.5c-0.116 0-0.234 0-0.366 0-0.050 0-0.098 0-0.166 0-0.168 0-0.334-0.034-0.5-0.034-235.092-0.532-425.468-191.258-425.468-426.466 0-235.142 190.376-425.902 425.468-426.468 0.166 0 0.332-0.032 0.5-0.032 0.066 0 0.116 0 0.166 0 0.134 0 0.25 0 0.366 0 235.508 0 426.5 190.992 426.5 426.5 0 235.54-190.992 426.5-426.5 426.5zM529.060 619.266c45.216 1.234 89.216 7.198 131.582 17.528 12.778-50.28 20.692-108.226 21.94-171.732h-153.522v154.204zM529.060 653.386v184.296c45.998-12.728 92.582-74.038 122.286-168.068-39.402-9.498-80.286-15.030-122.286-16.228zM494.94 838.080v-184.694c-42.35 1.2-83.566 6.83-123.268 16.494 29.938 94.594 76.968 156.138 123.268 168.2zM494.94 619.3v-154.24h-154.59c1.248 63.608 9.196 121.62 21.976 171.932 42.7-10.428 87.032-16.494 132.614-17.692zM306.014 465.060h-185.96c3.766 87.698 36.436 168.066 88.748 231.708 37.986-20.926 78.286-38.052 120.504-50.848-13.78-54.41-22.044-115.752-23.292-180.86zM306.014 430.94c1.248-65.076 9.512-126.418 23.29-180.83-42.2-12.828-82.518-29.954-120.504-50.88-52.312 63.642-84.982 144.010-88.746 231.71h185.96zM340.35 430.94h154.59v-154.040c-45.582-1.202-89.932-7.298-132.632-17.762-12.778 50.282-20.708 108.258-21.958 171.802zM494.94 242.812v-184.894c-46.332 12.096-93.396 73.704-123.318 168.402 39.718 9.662 80.952 15.294 123.318 16.492zM529.060 58.318v184.494c42.018-1.2 82.902-6.764 122.318-16.26-29.688-94.096-76.302-155.504-122.318-168.234zM529.060 276.9v154.040h153.522c-1.248-63.442-9.162-121.32-21.892-171.568-42.398 10.33-86.398 16.328-131.63 17.528zM716.92 430.94h187.028c-3.766-87.7-36.418-168.036-88.732-231.676-38.302 21.058-78.934 38.318-121.518 51.18 13.744 54.344 21.972 115.554 23.222 180.496zM716.92 465.060c-1.248 65.042-9.496 126.284-23.258 180.662 42.552 12.862 83.184 30.088 121.454 51.146 52.362-63.64 85.050-144.042 88.832-231.808h-187.028zM791.608 722.926c-33.938-18.060-69.774-32.988-107.192-44.316-19.944 64.176-47.948 116.556-81.052 150.942 72.638-17.428 137.496-55.014 188.244-106.626zM419.286 829.218c-32.936-34.322-60.808-86.466-80.686-150.308-37.050 11.296-72.572 26.090-106.208 44.016 50.414 51.278 114.79 88.764 186.894 106.292zM232.276 173.206c33.672 17.96 69.208 32.756 106.292 44.050 19.874-63.908 47.748-116.122 80.718-150.474-72.156 17.558-136.562 55.078-187.010 106.424zM603.348 66.482c33.154 34.386 61.16 86.8 81.118 151.074 37.434-11.362 73.288-26.256 107.24-44.382-50.746-51.648-115.654-89.3-188.358-106.692z" />
<glyph unicode="&#xe650;" d="M599.232 839.248l-44.016-357.128h194.822l-325.27-425.368 44.018 357.126h-194.824l325.27 425.37zM648.48 959.8l-443.56-580.040h225.278l-54.678-443.56 443.56 580.040h-225.278l54.678 443.56z" />
<glyph unicode="&#xe651;" d="M998.21 473.572h-10.214c-12.644 105.694-102.476 187.66-211.566 187.66-101.36 0-186.028-70.772-207.702-165.552l-48.832 25.508c-4.93 2.564-10.862 2.564-15.792 0l-48.83-25.508c-21.674 94.798-106.342 165.57-207.702 165.57-109.108 0-198.906-81.968-211.568-187.66h-10.212c-14.13 0-25.59-11.462-25.59-25.608 0-14.11 11.46-25.572 25.59-25.572h10.212c12.662-105.692 102.46-187.66 211.568-187.66 117.77 0 213.25 95.462 213.25 213.25 0 3.964-0.384 7.848-0.6 11.762l51.778 27.056 51.778-27.056c-0.216-3.916-0.598-7.798-0.598-11.762 0-117.77 95.478-213.25 213.25-213.25 109.090 0 198.888 81.968 211.566 187.642h10.214c14.128 0 25.59 11.462 25.59 25.59 0 14.13-11.462 25.59-25.59 25.59zM247.57 268.87c-98.78 0-179.13 80.352-179.13 179.13 0 98.78 80.35 179.13 179.13 179.13 98.778 0 179.13-80.35 179.13-179.13 0-98.778-80.352-179.13-179.13-179.13zM776.43 268.87c-98.78 0-179.13 80.352-179.13 179.13 0 98.762 80.35 179.112 179.13 179.112 98.778 0 179.13-80.35 179.13-179.112 0-98.778-80.352-179.13-179.13-179.13z" />
<glyph unicode="&#xe652;" d="M721.4 652.736c28.44 25.024 46.5 61.576 46.5 102.328 0 75.254-61.226 136.48-136.48 136.48-51.346 0-96.128-28.54-119.42-70.556-23.29 42.018-68.074 70.556-119.42 70.556-75.254 0-136.48-61.226-136.48-136.48 0-40.752 18.060-77.304 46.498-102.328h-200.038v-648.28h818.88v648.28h-200.040zM887.32 618.616v-272.96h-358.26v272.96h21.792l82.818-144.944 29.622 16.926-73.156 128.016h297.184zM512 686.59l19.342-33.854h-38.686l19.344 33.854zM631.42 857.424c56.444 0 102.36-45.916 102.36-102.36 0-56.428-45.916-102.328-102.36-102.328-56.446 0-102.36 45.9-102.36 102.328 0 56.444 45.914 102.36 102.36 102.36zM290.22 755.064c0 56.444 45.914 102.36 102.36 102.36 56.444 0 102.36-45.916 102.36-102.36 0-56.428-45.916-102.328-102.36-102.328-56.446 0-102.36 45.9-102.36 102.328zM433.864 618.616l-73.154-128.016 29.622-16.926 82.818 144.944h21.792v-272.96h-358.262v272.96h297.184zM136.68 311.536h358.26v-272.96h-358.26v272.96zM529.060 38.576v272.96h358.26v-272.96h-358.26z" />
<glyph unicode="&#xe653;" d="M853.2 712.43h-443.56v17.060c0 37.686-30.554 68.24-68.24 68.24h-170.6c-37.686 0-68.24-30.554-68.24-68.24v-562.98c0-37.684 30.554-68.24 68.24-68.24h682.4c37.686 0 68.24 30.556 68.24 68.24v477.68c0 37.686-30.554 68.24-68.24 68.24zM136.68 729.49c0 18.81 15.312 34.12 34.12 34.12h170.6c18.808 0 34.12-15.31 34.12-34.12v-51.18h477.68c18.808 0 34.12-15.31 34.12-34.12v-34.12h-750.64v119.42zM853.2 132.39h-682.4c-18.808 0-34.12 15.312-34.12 34.12v409.44h750.64v-409.44c0-18.808-15.312-34.12-34.12-34.12z" />
<glyph unicode="&#xe654;" d="M819.062 812.744l-22.692-7.912c-0.598-0.202-62.060-21.258-159.236-21.258-49.514 0-96.664 10.044-142.244 19.758-46.1 9.828-93.78 19.99-144.262 19.99-100.66 0-134.798-21.608-138.362-24.074l-7.348-5.080v-721.494h34.12v326.266c13.578 5.298 46.866 14.744 111.59 14.744 46.882 0 90.732-9.346 137.148-19.242 47.314-10.096 96.246-20.524 149.358-20.524 103.458 0 167.85 22.224 170.548 23.174l11.396 4.014-0.016 411.638zM784.96 425.896c-22.074-6.014-74.886-17.858-147.824-17.858-49.514 0-96.664 10.044-142.244 19.776-46.1 9.828-93.78 19.99-144.262 19.99-55.26 0-90.482-6.514-111.59-12.812v339.5c13.662 5.298 47.032 14.71 111.59 14.71 46.882 0 90.732-9.346 137.148-19.242 47.314-10.080 96.246-20.508 149.358-20.508 68.722 0 120.204 9.812 147.824 16.676v-340.232z" />
<glyph unicode="&#xe655;" d="M614.36 55.62h-204.904v332.722l-341.15 452.038h887.386l-341.332-452.038v-332.722zM443.576 89.74h136.664v310.030l306.946 406.49h-750.372l306.762-406.49v-310.030z" />
<glyph unicode="&#xe656;" d="M810.416 567.554l-289.886 289.886h-307.080v-818.88h597.1v528.942l-0.134 0.052zM520.53 809.19l224.712-224.71h-224.712v224.71zM247.57 72.68v750.64h238.84v-272.96h290.020v-477.68h-528.86z" />
<glyph unicode="&#xe657;" d="M358.46 823.32v34.12h-255.9v-255.9h34.12v197.658l242.822-242.822 24.124 24.122-242.822 242.822zM665.54 857.44v-34.12h197.656l-242.822-242.822 24.124-24.122 242.822 242.822v-197.658h34.12v255.9zM379.502 339.626l-242.822-242.822v197.656h-34.12v-255.9h255.9v34.12h-197.656l242.822 242.822zM887.32 96.804l-242.822 242.822-24.124-24.124 242.822-242.822h-197.656v-34.12h255.9v255.9h-34.12z" />
<glyph unicode="&#xe658;" d="M102.56 38.56h341.2v341.234h-341.2v-341.234zM136.68 345.674h272.96v-272.994h-272.96v272.994zM750.84 448h34.12v272.96h-272.96v-34.12h216.382l-252.152-252.15 24.124-24.124 250.486 250.484zM102.56 857.44v-409.44h34.12v375.32h750.64v-750.64h-375.32v-34.12h409.44v818.88z" />
<glyph unicode="&#xe659;" d="M904.38 772.156c0 47.116-38.2 85.284-85.3 85.284-47.114 0-85.3-38.168-85.3-85.284 0-41.25 29.306-75.67 68.24-83.584v-581.772h34.12v581.772c38.934 7.914 68.24 42.334 68.24 83.584zM819.080 720.976c-28.222 0-51.18 22.958-51.18 51.18 0 28.208 22.958 51.164 51.18 51.164s51.18-22.958 51.18-51.164c0-28.224-22.958-51.18-51.18-51.18zM221.98 207.444v581.756h-34.12v-581.756c-38.934-7.914-68.24-42.318-68.24-83.584 0-47.1 38.202-85.3 85.3-85.3 47.1 0 85.3 38.2 85.3 85.3 0 41.266-29.306 75.67-68.24 83.584zM204.92 72.68c-28.222 0-51.18 22.958-51.18 51.18s22.958 51.18 51.18 51.18 51.18-22.958 51.18-51.18-22.958-51.18-51.18-51.18zM529.060 531.584v257.616h-34.12v-257.616c-38.934-7.914-68.24-42.334-68.24-83.584 0-41.252 29.306-75.672 68.24-83.586v-257.614h34.12v257.614c38.934 7.914 68.24 42.334 68.24 83.586 0 41.25-29.306 75.67-68.24 83.584zM512 396.82c-28.222 0-51.18 22.958-51.18 51.18s22.958 51.18 51.18 51.18 51.18-22.958 51.18-51.18-22.958-51.18-51.18-51.18z" />
<glyph unicode="&#xe65a;" d="M794.856 452.724c-0.682 2.648-2 5.048-3.766 7.048l-279.090 465.466-39.868-66.474h0.050l-240.806-401.544c-0.598-1-1.082-2.032-1.45-3.098-27.522-48.648-42.066-103.626-42.066-159.22 0-178.73 145.41-324.14 324.158-324.14 178.73 0 324.122 145.41 324.122 324.14 0 55.062-14.26 109.506-41.284 157.822zM512.018 4.882c-159.92 0-290.038 130.1-290.038 290.020 0 50.68 13.528 100.826 39.118 144.992 0.484 0.818 0.866 1.666 1.2 2.534l249.702 416.404 249.67-416.354c0.334-0.884 0.748-1.75 1.234-2.582 25.59-44.166 39.116-94.312 39.116-144.992 0-159.922-130.098-290.022-290.002-290.022z" />
<glyph unicode="&#xe65b;" d="M752.172 738.020h-479.012l-187.66-204.72v-375.32h853v375.32l-186.328 204.72zM288.172 703.9h448.924l155.274-170.6h-260.95c0-63.892-55.528-115.504-119.42-115.504s-119.42 51.614-119.42 115.504h-260.78l156.372 170.6zM904.38 192.1h-784.76v307.080h243.056c16.326-65.308 78.102-115.504 149.324-115.504s132.998 50.198 149.324 115.504h243.056v-307.080z" />
<glyph unicode="&#xe65c;" d="M362.724 533.932l-24.124-24.124 173.4-173.4 173.4 173.4-24.124 24.124-132.216-132.216v540.072h-34.12v-540.072zM597.3 771.188v-34.12h221.78v-580.040h-614.16v580.040h221.78v34.12h-255.9v-648.28h682.4v648.28z" />
<glyph unicode="&#xe65d;" d="M972.62 831.85h-921.24v-34.12h68.24v-614.16h375.32v-85.3h-272.96v-34.12h580.040v34.12h-272.96v85.3h375.32v614.16h68.24v34.12zM870.26 217.69h-716.52v580.040h716.52v-580.040zM460.82 695.37h-204.72v-204.72h204.72v204.72zM426.7 524.77h-136.48v136.48h136.48v-136.48zM529.060 524.77h238.84v-34.12h-238.84v34.12zM529.060 695.37h238.84v-34.12h-238.84v34.12zM529.060 610.070h238.84v-34.12h-238.84v34.12zM256.1 422.41h511.8v-34.12h-511.8v34.12zM256.1 320.050h511.8v-34.12h-511.8v34.12z" />
<glyph unicode="&#xe65e;" d="M955.56 233.65v614.16h-887.12v-614.16h426.5v-65.992l-161.802-89.614 16.526-29.854 162.336 89.932 162.338-89.932 16.526 29.854-161.804 89.614v65.992h426.5zM102.56 813.69h818.88v-545.92h-818.88v545.92zM489.41 466.342l-101.178 141.112-67.706-131.282-106.458 214.816-77.72-286.87 32.92-8.932 54.194 200.006 96.462-194.624 73.072 141.68 109.242-152.342 94.346 316.544-32.688 9.762zM750.858 643.090c-56.444 0-102.378-45.916-102.378-102.36s45.932-102.36 102.378-102.36c56.428 0 102.342 45.916 102.342 102.36s-45.916 102.36-102.342 102.36zM750.858 472.49c-37.636 0-68.258 30.604-68.258 68.24s30.622 68.24 68.258 68.24c37.62 0 68.222-30.604 68.222-68.24s-30.604-68.24-68.222-68.24z" />
<glyph unicode="&#xe65f;" d="M750.84 857.44h-648.28v-818.88h818.88v648.28l-170.6 170.6zM682.6 823.32v-238.84h-341.2v238.84h341.2zM887.32 72.68h-750.64v750.64h170.6v-272.96h409.44v272.96h19.992l150.608-150.608v-600.032zM580.908 755.080h34.12v-102.36h-34.12v102.36zM341.4 311.52h341.2v-34.12h-341.2v34.12zM341.4 209.16h341.2v-34.12h-341.2v34.12z" />
<glyph unicode="&#xe660;" d="M102.56 857.44v-818.88h818.88v818.88h-818.88zM887.32 823.32v-153.54h-750.64v153.54h750.64zM136.68 72.68v562.98h750.64v-562.98h-750.64zM358.444 772.14h51.196v-51.18h-51.196v51.18zM614.36 772.14h51.18v-51.18h-51.18v51.18zM395.128 514.272c-6.114-41.518-25.856-42.234-65.59-43.666l-6.164-0.234v-28.938h67.324v-189.244h35.718v267.548h-30.488l-0.8-5.466zM596.534 433.856c-15.86 0-32.154-5.182-45.066-13.862l12.146 62.558h112.474v33.906h-139.096l-27.14-144.894h30.87l1.884 2.948c10.796 16.81 30.47 27.256 51.38 27.256 34.036 0 58.744-25.174 58.744-59.844 0-31.354-19.678-63.108-57.278-63.108-32.138 0-55.244 21.69-56.194 52.762l-0.2 6.198h-35.686l0.15-6.548c1.148-50.548 37.352-84.5 90.098-84.5 53.18 0 94.83 40.7 94.83 92.648-0.002 56.51-36.936 94.48-91.916 94.48z" />
<glyph unicode="&#xe661;" d="M904.38 874.416c-1.248 0-2.398-0.3-3.632-0.366h-98.728v0.366l-678.768-0.366c-1.234 0.066-2.384 0.366-3.632 0.366-37.686 0-68.24-30.554-68.24-68.24 0-18.958 7.746-36.086 20.224-48.446l150.376-150.376v11.146c0-154.406 120.77-280.29 272.96-289.154v-273.642h-136.48v-34.12h307.080v34.12h-136.48v273.642c152.19 8.862 272.96 134.746 272.96 289.154v-11.146l150.374 150.376c12.48 12.362 20.226 29.488 20.226 48.446 0 37.686-30.554 68.24-68.24 68.24zM221.98 655.602l-126.366 126.368c-6.516 6.464-10.114 15.060-10.114 24.206 0 18.342 14.544 33.354 32.722 34.086 1.050-0.134 2.098-0.232 3.182-0.284l0.934-0.050h99.644v-184.326zM767.9 618.5c0-141.112-114.806-255.9-255.9-255.9s-255.9 114.788-255.9 255.9v221.796h511.8v-221.796zM928.386 781.97l-126.366-126.368v184.328l100.578 0.050c1.084 0.052 2.132 0.15 3.182 0.284 18.178-0.732 32.722-15.742 32.722-34.086-0.002-9.148-3.6-17.744-10.116-24.208z" />
<glyph unicode="&#xe662;" d="M863.846 574.534h136.246l-494.622 292.852-481.562-292.852h123.418v-511.8h-68.24v-34.12h853v34.12h-68.24v511.8zM145.694 608.654l360.008 218.948 369.806-218.948h-729.814zM181.446 62.734v511.8h102.36v-511.8h-102.36zM317.926 62.734v511.8h102.36v-511.8h-102.36zM454.406 62.734v511.8h102.36v-511.8h-102.36zM590.886 62.734v511.8h102.36v-511.8h-102.36zM727.366 62.734v511.8h102.36v-511.8h-102.36z" />
<glyph unicode="&#xe663;" d="M802.020 175.174v553.866l62.11 61.892-24.090 24.156-60.21-60.008h-557.648v102.36h-34.12v-102.36h-102.562v-34.12h102.562v-579.906h579.838v-102.494h34.12v102.494h136.48v34.12h-136.48zM745.61 720.96l-523.428-521.748v521.748h523.428zM246.406 175.174l521.494 519.844v-519.846h-521.494z" />
<glyph unicode="&#xe664;" d="M921.44 755.080h-818.88c-28.254 0-51.18-22.926-51.18-51.18v-511.8c0-28.288 22.926-51.18 51.18-51.18h818.88c28.256 0 51.18 22.892 51.18 51.18v511.8c0 28.254-22.924 51.18-51.18 51.18zM85.5 618.6h853v-68.24h-853v68.24zM938.5 192.1c0-9.414-7.646-17.060-17.060-17.060h-818.88c-9.412 0-17.060 7.646-17.060 17.060v324.14h853v-324.14zM85.5 652.72v51.18c0 9.412 7.648 17.060 17.060 17.060h818.88c9.414 0 17.060-7.648 17.060-17.060v-51.18h-853zM153.74 277.4h341.2v-34.12h-341.2v34.12zM153.74 379.76h204.72v-34.12h-204.72v34.12zM767.4 243.28h69.274c18.542 0 33.586 14.794 33.586 33.086v2.048c0 18.276-15.044 33.104-33.586 33.104h-69.274c-18.574 0-33.62-14.828-33.62-33.104v-2.048c0-18.292 15.046-33.086 33.62-33.086z" />
<glyph unicode="&#xe665;" d="M891.046 723.67l-172.294 172.294h-379.046v-137.836h-206.752v-758.094h551.34v137.836h206.752v585.8zM718.752 847.236l123.568-123.566h-123.568v123.566zM167.412 34.494v689.176h310.13v-172.294h172.294v-516.882h-482.424zM512 709.4l123.568-123.566h-123.568v123.566zM684.294 172.33v413.506l-172.294 172.294h-137.836v103.376h310.13v-172.294h172.294v-516.882h-172.294z" />
<glyph unicode="&#xe666;" d="M563.18 840.38v-83.152l25.59-6.614c28.956-7.48 56.578-19.108 82.102-34.602l22.892-13.894 59.51 59.508 72.372-72.37-60.426-60.41 13.012-22.658c14.428-25.122 25.224-52.33 32.054-80.85l6.28-26.156h87.818v-102.36h-89.782l-6.914-25.040c-7.464-27.006-18.658-52.914-33.286-77.004l-13.896-22.908 65.142-65.124-72.372-72.37-66.058 66.042-22.64-13.012c-23.492-13.512-48.998-23.842-75.788-30.756l-25.608-6.598v-94.43h-102.36v94.43l-25.608 6.598c-26.79 6.914-52.296 17.244-75.788 30.756l-22.658 13.012-66.040-66.058-72.372 72.388 65.142 65.124-13.896 22.908c-14.628 24.090-25.822 49.998-33.286 77.004l-6.914 25.040h-89.782v102.36h87.818l6.28 26.156c6.83 28.52 17.626 55.728 32.054 80.85l13.012 22.658-60.426 60.41 72.372 72.37 59.51-59.508 22.892 13.894c25.524 15.494 53.146 27.124 82.102 34.602l25.59 6.614v83.15h102.356zM512 294.426c84.668 0 153.54 68.89 153.54 153.574 0 84.666-68.872 153.556-153.54 153.556s-153.54-68.89-153.54-153.556c0-84.684 68.872-153.574 153.54-153.574zM597.3 874.5h-170.6v-90.848c-32.588-8.414-63.21-21.442-91.264-38.468l-64.708 64.706-120.62-120.634 66.076-66.076c-15.944-27.754-27.99-57.928-35.654-89.88h-95.030v-170.6h97.928c8.432-30.506 20.958-59.194 37.004-85.634l-70.324-70.322 120.62-120.652 71.704 71.722c26.124-15.012 54.396-26.506 84.268-34.204v-102.11h170.6v102.11c29.872 7.698 58.144 19.192 84.268 34.204l71.706-71.704 120.62 120.634-70.324 70.322c16.044 26.44 28.572 55.13 37.004 85.634h97.928v170.6h-95.030c-7.664 31.954-19.71 62.126-35.654 89.88l66.076 66.076-120.62 120.634-64.708-64.706c-28.056 17.026-58.676 30.054-91.264 38.468v90.848h-0.002zM512 328.546c-65.974 0-119.42 53.48-119.42 119.454 0 65.972 53.446 119.436 119.42 119.436s119.42-53.462 119.42-119.436c0-65.974-53.446-119.454-119.42-119.454v0z" />
<glyph unicode="&#xe667;" d="M575.742 784.236c13.262 15.026 21.558 34.554 21.558 56.162 0 47.098-38.168 85.282-85.3 85.282-47.114 0-85.3-38.186-85.3-85.282 0-21.608 8.296-41.136 21.558-56.162-195.84-30.622-345.698-200.022-345.698-404.476 0-226.146 183.328-409.44 409.44-409.44s409.44 183.294 409.44 409.44c0 204.436-149.858 373.854-345.698 404.476zM512 891.56c28.222 0 51.18-22.958 51.18-51.162s-22.958-51.164-51.18-51.164-51.18 22.958-51.18 51.162 22.958 51.164 51.18 51.164zM512 4.44c-206.954 0-375.32 168.366-375.32 375.32s168.366 375.32 375.32 375.32 375.32-168.366 375.32-375.32-168.366-375.32-375.32-375.32zM307.364 174.774l277.608 131.482 131.5 277.624-278.526-130.598-130.582-278.508zM455.906 411.198l87.084-87.082-164.42-77.87 77.336 164.952zM567.112 348.238l-87.082 87.082 164.968 77.354-77.886-164.436z" />
<glyph unicode="&#xe668;" d="M853.25 805.752h-682.5c-37.686 0-68.24-30.554-68.24-68.24v-443.792c0-37.686 30.554-68.24 68.24-68.24h478.98l135.23-135.232v135.232h68.292c37.684 0 68.24 30.554 68.24 68.24v443.792c-0.002 37.686-30.558 68.24-68.242 68.24zM887.37 293.72c0-18.81-15.312-34.12-34.12-34.12h-102.41v-86.984l-86.982 86.984h-493.108c-18.808 0-34.12 15.31-34.12 34.12v443.792c0 18.81 15.312 34.12 34.12 34.12h682.5c18.808 0 34.12-15.31 34.12-34.12v-443.792zM512 549.62c-18.842 0-34.12-15.294-34.12-34.12 0-18.842 15.278-34.12 34.12-34.12s34.12 15.278 34.12 34.12c0 18.826-15.278 34.12-34.12 34.12zM648.48 549.62c-18.842 0-34.12-15.294-34.12-34.12 0-18.842 15.278-34.12 34.12-34.12s34.12 15.278 34.12 34.12c0 18.826-15.278 34.12-34.12 34.12zM378.734 549.62c-18.842 0-34.12-15.294-34.12-34.12 0-18.842 15.278-34.12 34.12-34.12s34.12 15.278 34.12 34.12c0 18.826-15.276 34.12-34.12 34.12z" />
<glyph unicode="&#xe669;" d="M767.034 328.58h137.346v272.96h-784.76v-255.9c0-179.014 145.126-324.14 324.14-324.14 173.25 0 314.362 136.046 323.274 307.080zM767.9 567.42h102.36v-204.72h-102.36v204.72zM443.76 55.62c-159.92 0-290.020 130.098-290.020 290.020v221.78h580.040v-221.78c0-159.922-130.1-290.020-290.020-290.020zM119.62-12.62h648.28v34.12h-648.28zM290.22 857.44h34.12v-153.54h-34.12v153.54zM563.18 857.44h34.12v-153.54h-34.12v153.54zM426.7 908.62h34.12v-204.72h-34.12v204.72z" />
<glyph unicode="&#xe66a;" d="M572.602 737.77c127 0 230.31-103.294 230.31-230.31 0-0.7-0.084-1.434-0.134-2.132-0.098-1.7-0.216-3.398-0.25-5.132l-0.866-34.82 34.87-0.134c84.4-0.234 153.056-69.106 153.056-153.508 0-84.168-68.524-153.040-152.74-153.474l-7.446-0.032h-624.54c-93.98 0.098-170.45 76.602-170.45 170.566 0 72.806 46.348 137.612 115.306 161.272l19.192 6.562 3.382 19.992c8.362 49.348 50.746 85.166 100.776 85.166 15.944 0 31.354-3.698 45.8-10.962l31.106-15.626 15.010 31.386c38.134 79.706 119.634 131.186 207.618 131.186zM572.602 771.89c-105.226 0-195.824-61.608-238.392-150.574-18.41 9.264-39.134 14.594-61.144 14.594-67.538 0-123.484-49.148-134.414-113.588-80.432-27.59-138.36-103.694-138.36-193.526 0-112.988 91.58-204.586 204.536-204.686l632.204 0.032c103.192 0.534 186.676 84.3 186.676 187.594 0 103.46-83.682 187.328-187.076 187.628 0.066 2.732 0.4 5.364 0.4 8.096 0 146.042-118.388 264.43-264.43 264.43v0z" />
<glyph unicode="&#xe66b;" d="M512 857.44c-226.112 0-409.44-183.328-409.44-409.44 0-226.114 183.328-409.44 409.44-409.44s409.44 183.326 409.44 409.44c0 226.112-183.328 409.44-409.44 409.44zM512 72.68c-206.954 0-375.32 168.366-375.32 375.32 0 206.952 168.366 375.32 375.32 375.32s375.32-168.368 375.32-375.32c0-206.954-168.366-375.32-375.32-375.32zM512 413.88h-204.72v-34.12h238.84v339.8h-34.12z" />
<glyph unicode="&#xe66c;" d="M512 874.5c-235.54 0-426.5-190.942-426.5-426.5s190.96-426.5 426.5-426.5c235.542 0 426.5 190.942 426.5 426.5s-190.958 426.5-426.5 426.5zM512 55.62c-216.366 0-392.38 176.030-392.38 392.38 0 216.348 176.014 392.38 392.38 392.38s392.38-176.032 392.38-392.38c0-216.35-176.014-392.38-392.38-392.38zM725.35 600.274l-273.876-265.58-95.946 95.928c-9.998 9.998-26.19 9.998-36.186 0-9.998-9.996-9.998-26.188 0-36.186l113.754-113.754c4.998-4.998 11.546-7.498 18.094-7.498 6.414 0 12.844 2.398 17.808 7.214l291.97 283.122c10.146 9.846 10.396 26.038 0.566 36.186-9.876 10.164-26.054 10.396-36.184 0.568z" />
<glyph unicode="&#xe66d;" d="M682.6 618.592v255.9h-597.1v-460.62h255.9v-255.9h354.030l136.48-136.462h21.29v136.462h85.3v460.62h-255.9zM119.62 447.992v392.38h528.86v-221.78h-307.080v-170.6h-221.78zM904.38 192.092h-85.3v-109.508l-109.524 109.508h-334.036v392.38h528.86v-392.38z" />
<glyph unicode="&#xe66e;" d="M979.892 652.72h-717.038l-57.892 238.84h-160.854v-34.12h134.030l166.352-686.182c-35.47-10.33-61.542-42.702-61.542-81.518 0-47.1 38.184-85.3 85.3-85.3 47.114 0 85.3 38.2 85.3 85.3 0 19.292-6.648 36.9-17.444 51.18h239.588c-10.796-14.28-17.426-31.888-17.426-51.18 0-47.1 38.168-85.3 85.282-85.3 47.132 0 85.318 38.2 85.318 85.3 0 47.13-38.186 85.282-85.3 85.3v0h-364.906l-16.544 68.24h478.978l138.798 409.44zM419.428 89.74c0-28.222-22.96-51.18-51.18-51.18-28.222 0-51.18 22.958-51.18 51.18 0 28.22 22.958 51.18 51.18 51.18 28.22 0 51.18-22.96 51.18-51.18zM794.748 89.74c0-28.222-22.96-51.18-51.198-51.18-28.206 0-51.162 22.958-51.162 51.18 0 28.22 22.958 51.18 51.162 51.18 28.238 0 51.198-22.96 51.198-51.18zM353.852 277.4l-82.718 341.2h661.174l-115.668-341.2h-462.788z" />
<glyph unicode="&#xe66f;" d="M870.252 669.78h-141.112l-82.034 82.234c-0.098 0.098-0.182 0.166-0.266 0.266l-0.15 0.134c-12.328 12.194-29.254 19.726-47.964 19.726h-170.6c-19.826 0-37.502-8.564-49.98-22.058l-0.066 0.2-80.336-80.502h-144.012c-37.686 0-68.24-30.556-68.24-68.24v-409.44c0-37.686 30.554-68.24 68.24-68.24h716.52c37.702 0 68.258 30.554 68.258 68.24v409.44c-0.002 37.684-30.556 68.24-68.258 68.24zM904.388 192.1c0-18.794-15.328-34.12-34.138-34.12h-716.518c-18.808 0-34.12 15.326-34.12 34.12v409.44c0 18.826 15.312 34.12 34.12 34.12h158.154l51.312 51.412 0.834-2.5 39.168 42.352c6.63 7.164 15.476 11.096 24.922 11.096h170.6c9.012 0 17.542-3.5 24.224-10.096l92.030-92.264h155.274c18.808 0 34.138-15.294 34.138-34.12v-409.44zM511.992 635.66c-122.486 0-221.78-99.262-221.78-221.748s99.294-221.812 221.78-221.812 221.78 99.326 221.78 221.812-99.294 221.748-221.78 221.748zM511.992 226.22c-103.476 0-187.66 84.2-187.66 187.692 0 103.46 84.184 187.628 187.66 187.628s187.66-84.168 187.66-187.628c0-103.492-84.184-187.692-187.66-187.692zM511.992 567.42c-84.818 0-153.54-68.708-153.54-153.508s68.722-153.572 153.54-153.572 153.54 68.772 153.54 153.572-68.724 153.508-153.54 153.508zM511.992 294.46c-65.842 0-119.42 53.612-119.42 119.452s53.578 119.388 119.42 119.388 119.42-53.546 119.42-119.388-53.58-119.452-119.42-119.452z" />
<glyph unicode="&#xe670;" d="M749.022-12.62c-77.804 0-266.896 99.496-425.7 313.046-148.526 199.738-220.73 344.032-220.73 441.128 0 76.452 52.796 112.938 81.152 132.53l6.998 4.882c31.338 22.406 80.068 29.654 98.744 29.654 32.754 0 46.566-19.176 54.928-35.886 7.096-14.128 65.94-140.494 71.904-156.204 9.148-24.156 6.132-59.36-22.158-79.602l-4.964-3.466c-14.046-9.73-40.168-27.822-43.782-49.814-1.766-10.694 1.816-21.874 10.946-34.186 45.548-61.376 190.976-241.588 217.198-266.062 20.542-19.192 46.566-21.924 64.292-6.98 18.342 15.462 26.49 24.59 26.572 24.69l1.882 1.816c1.55 1.3 15.878 12.662 39.302 12.662 16.892 0 34.086-5.832 51.062-17.31 44.1-29.788 143.594-96.346 143.594-96.346l1.616-1.216c12.728-10.912 31.122-42.332 9.68-83.234-22.224-42.452-91.214-130.102-162.536-130.102zM289.486 874.5c-16.16 0-55.878-6.83-78.92-23.29l-7.414-5.182c-26.456-18.294-66.44-45.916-66.44-104.476 0-89.498 70.006-227.128 213.998-420.77 157.256-211.5 337.018-299.284 398.312-299.284 52.128 0 111.89 72.822 132.314 111.808 12.546 23.94 2.282 37.434-1.266 41.084-11.512 7.712-101.242 67.74-142.494 95.612-11.246 7.612-22.010 11.46-31.97 11.46-9.046 0-14.994-3.214-17.010-4.482-3.332-3.566-12.494-12.946-28.756-26.656-30.436-25.622-76.736-22.542-109.572 8.13-29.54 27.572-178.73 213.316-221.298 270.678-14.728 19.842-20.524 40.052-17.228 60.060 5.982 36.27 39.836 59.71 58.028 72.306l4.532 3.182c16.244 11.612 12.812 32.638 10.114 39.752-5.032 13.246-63.126 138.312-70.488 153.006-6.032 12.032-10.764 17.062-24.442 17.062z" />
<glyph unicode="&#xe671;" d="M273.16 635.66h477.68v136.48h-477.68v-136.48zM307.28 738.020h409.44v-68.24h-409.44v68.24zM750.84 857.44h-477.68c-37.686 0-68.24-30.554-68.24-68.24v-682.4c0-37.686 30.554-68.24 68.24-68.24h477.68c37.686 0 68.24 30.554 68.24 68.24v682.4c0 37.686-30.554 68.24-68.24 68.24zM784.96 106.8c0-18.826-15.31-34.12-34.12-34.12h-477.68c-18.808 0-34.12 15.294-34.12 34.12v682.4c0 18.794 15.312 34.12 34.12 34.12h477.68c18.81 0 34.12-15.326 34.12-34.12v-682.4zM307.28 482.12v102.36h-34.12v-136.48h136.48v34.12h-34.12zM307.28 311.52v102.36h-34.12v-136.48h136.48v34.12h-34.12zM307.28 140.92v102.36h-34.12v-136.48h136.48v34.12h-34.12zM477.88 482.12v102.36h-34.12v-136.48h136.48v34.12h-34.12zM648.48 482.12v102.36h-34.12v-136.48h136.48v34.12h-34.12zM477.88 311.52v102.36h-34.12v-136.48h136.48v34.12h-34.12zM477.88 140.92v102.36h-34.12v-136.48h136.48v34.12h-34.12zM648.48 140.92v272.96h-34.12v-307.080h136.48v34.12h-34.12z" />
<glyph unicode="&#xe672;" d="M85.492 874.5v-853h853.016v853h-853.016zM904.388 840.38v-136.48h-784.776v136.48h784.776zM119.612 55.62v614.16h784.776v-614.16h-784.776zM307.272 789.2h528.876v-34.12h-528.876v34.12zM170.792 789.2h34.12v-34.12h-34.12v34.12zM239.032 789.2h34.12v-34.12h-34.12v34.12z" />
<glyph unicode="&#xe673;" d="M955.86 767.184l-443.86 163.186-460.62-169.066v-628.556l460.62-167.118 460.62 167.118v628.288l-16.76 6.148zM494.94 8.13l-409.44 148.544v567.894l409.44-148.544v-567.894zM512 606.148l-394.444 143.108 394.444 144.762 394.080-144.894-394.080-142.976zM938.5 156.674l-409.44-148.544v567.896l409.44 147.942v-567.294z" />
<glyph unicode="&#xe674;" d="M921.44 831.85h-818.88v-221.78h34.138v-545.92h750.622v545.92h34.12v221.78zM853.2 98.27h-682.382v511.8h682.382v-511.8zM887.32 644.19h-750.64v153.54h750.64v-153.54zM388.598 388.142h247.636c35.254 0 63.86 27.772 63.86 62.060v12.362c0 34.286-28.606 62.060-63.86 62.060h-247.636c-35.27 0-63.826-27.774-63.826-62.060v-12.362c0.002-34.288 28.556-62.060 63.826-62.060zM358.894 462.562c0 15.41 13.328 27.94 29.706 27.94h247.636c16.394 0 29.74-12.528 29.74-27.94v-12.362c0-15.412-13.344-27.94-29.74-27.94h-247.638c-16.378 0-29.706 12.528-29.706 27.94v12.362z" />
<glyph unicode="&#xe675;" d="M870.31 840.496h-307.080c-20.524 0-38.718-9.246-51.212-23.608-12.528 14.362-30.722 23.608-51.246 23.608h-307.082c-37.686 0-68.24-30.554-68.24-68.24v-580.274c0-37.686 30.554-68.24 68.24-68.24h307.080c0.332 0 0.666 0.1 1 0.1 18.158-0.434 32.786-15.078 33.22-33.204v-35.136h34.12v18.926h0.334v15.378c0 18.442 14.726 33.436 33.054 34.020 0.232 0 0.5-0.084 0.732-0.084h307.080c37.686 0 68.24 30.554 68.24 68.24v580.274c0 37.686-30.556 68.24-68.24 68.24zM119.57 191.984v580.272c0 18.808 15.326 34.12 34.12 34.12h307.080c18.826 0 34.12-15.312 34.12-34.12v-580.274c0-18.808-15.294-34.12-34.12-34.12h-307.080c-18.792 0.002-34.12 15.312-34.12 34.122zM904.43 191.984c0-18.808-15.294-34.12-34.12-34.12h-307.080c-18.792 0-34.12 15.312-34.12 34.12v580.272c0 18.808 15.328 34.12 34.12 34.12h307.080c18.826 0 34.12-15.312 34.12-34.12v-580.272z" />
<glyph unicode="&#xe676;" d="M836.14 541.854c-23.59 0-46.080-4.566-66.89-12.528l-83.966 166.052h65.556v34.12h-121.036l34.504-68.24h-295.55l-17.228 34.12h58.11v34.12h-113.554l38.368-75.986c-0.2-0.284-0.466-0.516-0.632-0.816l-72.338-125.918c-22.626 9.68-47.498 15.078-73.622 15.078-103.476 0-187.66-84.184-187.66-187.678 0-103.476 84.184-187.66 187.66-187.66 97.712 0 178.148 75.104 186.796 170.6h139.662c6.080 0 11.694 3.232 14.76 8.498l157.538 271.51 52.030-102.892c-53.962-32.988-90.166-92.298-90.166-160.056 0-103.492 84.184-187.676 187.66-187.676 103.478 0 187.66 84.182 187.66 187.676s-84.184 187.676-187.662 187.676zM352.78 617.208l124.202-245.972h-102.326c-5.264 58.094-37.052 108.592-83.168 139.262l61.292 106.71zM340.4 371.238h-128.932l62.992 109.642c35.936-24.658 60.876-64.176 65.94-109.642zM187.86 200.638c-84.668 0-153.54 68.872-153.54 153.54s68.872 153.558 153.54 153.558c19.944 0 38.936-3.932 56.43-10.88l-77.088-134.18c-3.032-5.282-3.016-11.778 0.034-17.042 3.048-5.264 8.678-8.514 14.76-8.514h158.404c-8.53-76.654-73.652-136.482-152.54-136.482zM510.218 381.118l-124.234 246.020h266.996l-142.762-246.020zM836.14 200.622c-84.668 0-153.54 68.888-153.54 153.556 0 54.462 28.59 102.278 71.474 129.55l72.238-142.878 30.454 15.394-72.022 142.444c16.094 5.75 33.354 9.046 51.396 9.046 84.668 0 153.54-68.89 153.54-153.558s-68.872-153.554-153.54-153.554z" />
<glyph unicode="&#xe677;" d="M802.354 276.008v274.178c0 142.776-103.328 261.198-239.174 285.288v21.792c0 18.842-15.294 34.12-34.12 34.12h-34.12c-18.858 0-34.12-15.278-34.12-34.12v-21.892c-135.58-24.356-238.506-142.644-238.506-285.188v-274.176l-119.754-96.93v-55.312h818.88v55.312l-119.086 96.928zM887.32 157.888h-750.64v4.914l119.754 96.928v290.456c0 141.112 114.788 255.9 255.9 255.9 141.078 0 255.9-114.788 255.9-255.9v-290.404l119.086-96.928v-4.966zM511.968 4.614c47.146 0 85.398 38.152 85.398 85.3h-170.732c0.034-47.148 38.252-85.3 85.334-85.3z" />
<glyph unicode="&#xe678;" d="M0.65 619.232v-342.45c0-27.922 22.642-50.562 50.548-50.562h427.132v443.56h-427.134c-27.904 0-50.546-22.624-50.546-50.548zM444.21 260.34h-393.014c-9.062 0-16.428 7.38-16.428 16.442v342.45c0 9.062 7.364 16.428 16.428 16.428h393.012v-375.32zM1023.35 448c0 56.228-45.35 101.844-101.462 102.308v68.924c0 27.922-22.624 50.548-50.548 50.548h-358.89v-34.12h358.892c9.064 0 16.428-7.364 16.428-16.428v-342.45c0-9.062-7.364-16.442-16.428-16.442h-358.892v-34.12h358.892c27.924 0 50.548 22.64 50.548 50.562v68.908c56.112 0.466 101.46 46.064 101.46 102.31zM921.89 379.842v136.314c37.202-0.5 67.342-30.822 67.342-68.156-0.002-37.336-30.14-67.658-67.342-68.158z" />
<glyph unicode="&#xe679;" d="M511.966 874.5c-235.54 0-426.466-190.976-426.466-426.534 0-235.54 190.924-426.466 426.466-426.466s426.534 190.926 426.534 426.466c0 235.558-190.992 426.534-426.534 426.534zM903.946 465.026h-305.98c3.266 117.22 39.95 228.61 106.792 324.54 114.388-64.826 193.19-185.362 199.188-324.54zM511.966 840.38c57.644 0 112.324-12.596 161.67-34.986-69.14-100.794-106.924-217.648-110.124-340.368h-103.026c-3.232 122.72-40.984 239.59-110.158 340.368 49.348 22.408 104.028 34.986 161.638 34.986zM319.242 789.566c66.84-95.896 103.526-207.302 106.79-324.54h-305.978c5.964 139.178 84.8 259.732 199.188 324.54zM120.054 430.906h306.314c-3.266-117.304-39.884-228.81-106.76-324.706-114.59 64.758-193.558 185.394-199.554 324.706zM511.966 55.62c-57.61 0-112.288 12.578-161.636 34.986 69.174 100.76 106.926 217.548 110.158 340.3h103.026c3.2-122.784 40.984-239.54 110.124-340.3-49.35-22.39-104.028-34.986-161.672-34.986zM704.292 106.168c-66.842 95.896-103.426 207.402-106.66 324.738h306.314c-5.998-139.33-85-259.98-199.654-324.738z" />
<glyph unicode="&#xe67a;" d="M460.462 705.416v-139.98l33.788-0.332c234.708-2.266 366.924-106.66 401.36-318.21-128.934 149.142-277.61 149.21-401.012 149.244h-34.138v-138.78l-316.29 224.046 316.292 224.012zM494.582 771.424l-409.44-290.020 409.44-290.020v170.634c163.87-0.066 315.794-8.33 444.276-237.442 0 145.51-24.040 470.584-444.276 474.648v172.2z" />
<glyph unicode="&#xe67b;" d="M511.984 848.91l-460.604-801.82h921.24l-460.636 801.82zM511.984 780.404l401.692-699.194h-803.352l401.66 699.194zM494.924 524.77h34.12v-238.84h-34.12v238.84zM511.95 234.75c-14.128 0-25.54-11.46-25.54-25.59 0-14.094 11.414-25.556 25.54-25.556 14.178 0 25.64 11.462 25.64 25.556 0 14.13-11.46 25.59-25.64 25.59z" />
<glyph unicode="&#xe67c;" d="M960.766 175.14l-69.488 141.128-150.658-61.476 12.896-31.588 100.844 41.134c-46.432-135.812-171.916-235.040-321.524-242.122v614.646c67.292 8.412 119.42 65.706 119.42 135.296 0 75.372-61.126 136.462-136.496 136.462-75.354 0-136.464-61.092-136.464-136.462 0-69.59 52.13-126.9 119.42-135.296v-614.644c-148.308 7.030-272.942 104.56-320.324 238.556l92.096-37.568 12.896 31.588-150.658 61.476-69.492-141.13 30.62-15.060 48.83 99.162c51-157.522 198.808-271.862 373.088-271.862 170.834 0 316.444 109.758 370.19 262.432l44.182-89.732 30.622 15.060zM413.412 772.158c0 56.428 45.916 102.342 102.344 102.342 56.444 0 102.376-45.916 102.376-102.342 0-56.444-45.93-102.36-102.376-102.36-56.426 0-102.344 45.914-102.344 102.36z" />
<glyph unicode="&#xe67d;" d="M51.38 720.96v-682.4h921.24v682.4h-921.24zM938.5 72.68h-853v614.16h853v-614.16zM119.62 789.2h784.76v-34.12h-784.76v34.12zM187.86 857.44h648.28v-34.12h-648.28v34.12z" />
<glyph unicode="&#xe67e;" d="M511.75 772.106c-207.32 0-375.32-168.034-375.32-375.32 0-94.064 34.702-179.996 91.898-245.87l-87.8-107.624 26.422-21.558 85.084 104.26c67.424-64.676 158.888-104.492 259.716-104.492 101.060 0 192.724 40.018 260.214 104.992l85.034-104.894 26.522 21.492-87.864 108.39c56.91 65.808 91.414 151.508 91.414 245.304 0 207.286-168.068 375.32-375.32 375.32zM511.75 55.62c-188.144 0-341.2 153.040-341.2 341.166 0 188.16 153.056 341.2 341.2 341.2 188.142 0 341.2-153.040 341.2-341.2 0-188.126-153.056-341.166-341.2-341.166zM357.46 874.5h-101.36c-94.23 0-170.6-76.37-170.6-170.6v-102.66h48.514l223.446 224.712v48.548zM323.34 840.014l-203.72-204.654v68.54c0 75.236 61.226 136.48 136.48 136.48h67.24v-0.366zM767.9 874.5h-101.426v-48.548l223.48-224.712h48.548v102.66c-0.002 94.23-76.406 170.6-170.602 170.6zM904.38 635.36h-0.234l-203.552 204.654v0.366h67.306c75.254 0 136.48-61.244 136.48-136.48v-68.54zM494.94 396.82h-188.094v-34.12h222.214v307.080h-34.12z" />
<glyph unicode="&#xe67f;" d="M921.44 806.26h-818.88v-511.8h277.826l-175.466-204.72h614.16l-175.48 204.72h277.84v511.8zM279.108 123.86l232.876 271.712 232.908-271.712h-465.784zM887.32 328.58h-272.978l-102.36 119.42-102.36-119.42h-272.942v443.56h750.64v-443.56z" />
<glyph unicode="&#xe680;" d="M343.118 641.008l-24.126-24.126 168.884-168.884-168.084-168.086 24.126-24.126 168.084 168.084 168.086-168.084 24.126 24.126-168.084 168.086 168.884 168.884-24.126 24.126-168.886-168.884z" />
<glyph unicode="&#xe681;" d="M210.422 749.578c-166.576-166.576-166.576-436.586 0-603.162s436.58-166.57 603.156 0.006c166.576 166.576 166.582 436.58 0.006 603.156s-436.586 166.576-603.162 0zM789.452 170.548c-152.982-152.982-401.922-152.988-554.904-0.006s-152.982 401.928 0 554.91c152.982 152.982 401.926 152.982 554.91 0 152.98-152.982 152.974-401.922-0.006-554.904zM343.118 641.008l-24.126-24.126 168.884-168.884-168.084-168.086 24.126-24.126 168.084 168.084 168.086-168.084 24.126 24.126-168.084 168.086 168.884 168.884-24.126 24.126-168.886-168.884z" />
<glyph unicode="&#xe682;" d="M536.542 550.102l-24.142 24.142-193.13-193.132 24.138-24.138 168.992 168.99 168.192-168.192 24.138 24.142-96.406 96.406z" />
<glyph unicode="&#xe683;" d="M511.216 21.472c235.724 0 426.772 191.046 426.772 426.772s-191.046 426.772-426.772 426.772-426.77-191.048-426.77-426.772 191.046-426.772 426.77-426.772zM511.216 840.874c216.486 0 392.63-176.14 392.63-392.63 0-216.486-176.144-392.63-392.63-392.63s-392.63 176.144-392.63 392.63c0 216.49 176.144 392.63 392.63 392.63zM535.59 550.102l-24.142 24.142-193.128-193.132 24.138-24.138 168.99 168.99 168.194-168.192 24.138 24.142-96.406 96.406z" />
<glyph unicode="&#xe684;" d="M613.076 423.458l24.14 24.142-193.132 193.13-24.138-24.138 168.992-168.992-168.194-168.192 24.142-24.138 96.406 96.406z" />
<glyph unicode="&#xe685;" d="M84.446 448.244c0-235.724 191.046-426.772 426.772-426.772s426.772 191.046 426.772 426.772-191.048 426.772-426.774 426.772-426.77-191.048-426.77-426.772zM903.846 448.244c0-216.486-176.14-392.63-392.63-392.63-216.486 0-392.63 176.144-392.63 392.63s176.144 392.63 392.63 392.63c216.49 0 392.63-176.144 392.63-392.63zM613.076 423.87l24.14 24.142-193.132 193.13-24.138-24.138 168.992-168.992-168.194-168.192 24.142-24.138 96.406 96.406z" />
<glyph unicode="&#xe686;" d="M409.358 472.542l-24.142-24.142 193.134-193.13 24.138 24.138-168.992 168.992 168.192 168.192-24.14 24.138-96.406-96.406z" />
<glyph unicode="&#xe687;" d="M937.988 448.244c0 235.724-191.046 426.772-426.772 426.772s-426.77-191.048-426.77-426.772 191.046-426.772 426.772-426.772 426.77 191.048 426.77 426.772zM118.586 448.244c0 216.486 176.14 392.63 392.63 392.63 216.486 0 392.63-176.144 392.63-392.63s-176.144-392.63-392.63-392.63c-216.488 0-392.63 176.144-392.63 392.63zM409.358 472.618l-24.142-24.142 193.134-193.13 24.138 24.14-168.992 168.99 168.192 168.192-24.14 24.138-96.406-96.406z" />
<glyph unicode="&#xe688;" d="M487.458 346.386l24.142-24.142 193.13 193.134-24.138 24.138-168.992-168.992-168.192 168.192-24.138-24.142 96.406-96.406z" />
</font>
</defs>
</svg>
